<?xml version="1.0" standalone="no"?>
<!DOCTYPE svg PUBLIC "-//W3C//DTD SVG 1.1//EN" "http://www.w3.org/Graphics/SVG/1.1/DTD/svg11.dtd" >
<svg xmlns="http://www.w3.org/2000/svg" xmlns:xlink="http://www.w3.org/1999/xlink" version="1.1">
<metadata>
Created by FontForge 20160407 at Wed Aug 24 08:55:16 2016
 By Jimmy Wärting
Copyright (c) 2000 The Hoefler Type Foundry, Inc., dba Hoefler &#38; Frere-Jones. All Rights Reserved.
</metadata>
<defs>
<font id="MyFontBold" horiz-adv-x="500" >
  <font-face 
    font-family="My Font"
    font-weight="500"
    font-stretch="normal"
    units-per-em="1000"
    panose-1="0 0 0 0 0 0 0 0 0 0"
    ascent="800"
    descent="-200"
    x-height="536"
    cap-height="700"
    bbox="-71 -173 1195 932"
    underline-thickness="50"
    underline-position="-100"
    unicode-range="U+0020-FB04"
  />
<missing-glyph horiz-adv-x="472" 
d="M0 700v-700h432v700h-432zM50 50v600h332v-600h-332z" />
    <glyph glyph-name=".notdef" horiz-adv-x="472" 
d="M0 700v-700h432v700h-432zM50 50v600h332v-600h-332z" />
    <glyph glyph-name=".notdef" horiz-adv-x="472" 
d="M0 700v-700h432v700h-432zM50 50v600h332v-600h-332z" />
    <glyph glyph-name="space" unicode=" " horiz-adv-x="300" 
 />
    <glyph glyph-name="exclam" unicode="!" horiz-adv-x="324" 
d="M120 238h84l47 442v20h-178v-20zM81 0h162v160h-162v-160z" />
    <glyph glyph-name="quotedbl" unicode="&#x22;" horiz-adv-x="520" 
d="M293 381h77l109 314v5h-168zM57 381h77l109 314v5h-168z" />
    <glyph glyph-name="numbersign" unicode="#" horiz-adv-x="700" 
d="M85 0h132l26 150h145l-26 -150h132l26 150h110v128h-88l25 148h98v128h-76l25 146h-132l-25 -146h-145l25 146h-132l-25 -146h-110v-128h88l-25 -148h-98v-128h76zM265 278l25 148h145l-25 -148h-145z" />
    <glyph glyph-name="dollar" unicode="$" horiz-adv-x="646" 
d="M280 -98h104v99c65 7 116 28 155 63c38 35 57 79 57 134c0 57 -17 102 -51 136c-34 33 -89 60 -166 81v151c40 -11 81 -30 124 -59l67 117c-57 40 -119 65 -186 74v60h-104v-58c-64 -7 -115 -27 -153 -62s-57 -79 -57 -134c0 -58 17 -103 52 -135c34 -33 88 -59 163 -79
v-159c-51 11 -106 38 -163 81l-78 -114c69 -52 147 -84 236 -95v-101zM285 440c-27 9 -45 20 -54 31c-10 11 -15 24 -15 40c0 37 23 58 69 64v-135zM379 126v140c27 -10 45 -20 56 -31c10 -11 15 -26 15 -43c0 -37 -24 -59 -71 -66z" />
    <glyph glyph-name="percent" unicode="%" horiz-adv-x="860" 
d="M337 402c32 35 48 77 48 127c0 51 -16 93 -47 128c-31 34 -72 51 -122 51s-91 -17 -123 -51c-32 -35 -48 -77 -48 -128s16 -93 47 -127c31 -35 72 -52 122 -52s83 9 99 26s24 26 24 26zM115 0h119l511 700h-119zM767 44c32 35 48 77 48 127c0 51 -16 93 -47 128
c-31 34 -72 51 -122 51s-91 -17 -123 -51c-32 -35 -48 -77 -48 -128s16 -93 47 -127c31 -35 72 -52 122 -52s83 9 99 26s24 26 24 26zM216 441c-19 0 -35 9 -47 26c-13 17 -19 38 -19 62c0 25 6 46 17 63s27 25 47 25c19 0 35 -9 48 -26c12 -17 18 -38 18 -62
c0 -25 -6 -45 -17 -62s-27 -26 -47 -26zM646 83c-19 0 -35 9 -47 26c-13 17 -19 38 -19 62c0 25 6 46 17 63s27 25 47 25c19 0 35 -9 48 -26c12 -17 18 -38 18 -62c0 -25 -6 -45 -17 -62s-27 -26 -47 -26z" />
    <glyph glyph-name="ampersand" unicode="&#x26;" horiz-adv-x="696" 
d="M555 -14l113 79l-103 103c27 36 57 85 92 148l-113 62c-23 -45 -46 -85 -68 -120l-93 93c98 38 147 99 147 183c0 51 -18 93 -54 127c-37 34 -84 51 -143 51c-65 0 -116 -18 -154 -54c-39 -36 -58 -79 -58 -130c0 -49 16 -96 49 -142c-91 -41 -136 -105 -136 -192
c0 -62 22 -111 66 -148s100 -56 169 -56c73 0 142 26 205 78zM303 432c-27 31 -41 60 -41 87c0 22 6 40 19 53c12 13 28 20 49 20c20 0 36 -6 48 -17c12 -12 18 -28 18 -48c0 -22 -7 -40 -22 -55s-39 -28 -71 -40zM287 116c-29 0 -52 8 -70 23c-19 15 -28 34 -28 59
c0 40 22 71 65 94l134 -136c-34 -27 -68 -40 -101 -40z" />
    <glyph glyph-name="quotesingle" unicode="'" horiz-adv-x="286" 
d="M57 381h79l109 314v5h-170z" />
    <glyph glyph-name="parenleft" unicode="(" horiz-adv-x="445" 
d="M336 -141l67 101c-68 47 -117 96 -147 147c-31 50 -46 110 -46 180s15 130 46 181c30 50 79 99 147 146l-67 101c-93 -51 -162 -111 -208 -180c-46 -70 -69 -153 -69 -248s23 -178 69 -247c46 -70 115 -130 208 -181z" />
    <glyph glyph-name="parenright" unicode=")" horiz-adv-x="445" 
d="M109 -141c93 51 162 111 208 181c46 69 69 152 69 247s-23 178 -69 248c-46 69 -115 129 -208 180l-67 -101c68 -47 117 -96 148 -146c30 -51 45 -111 45 -181s-15 -130 -45 -180c-31 -51 -80 -100 -148 -147z" />
    <glyph glyph-name="asterisk" unicode="*" horiz-adv-x="430" 
d="M174 372h82l-16 120l97 -74l42 72l-112 47l112 47l-42 72l-97 -74l16 120h-82l16 -120l-97 74l-42 -72l112 -47l-112 -47l42 -72l97 74z" />
    <glyph glyph-name="plus" unicode="+" horiz-adv-x="640" 
d="M249 103h142v180h181v138h-181v180h-142v-180h-181v-138h181v-180z" />
    <glyph glyph-name="comma" unicode="," horiz-adv-x="286" 
d="M39 -162c61 1 108 17 139 47c31 29 46 76 46 140v135h-162v-160h62v-11c0 -51 -33 -81 -98 -88z" />
    <glyph glyph-name="hyphen" unicode="-" horiz-adv-x="408" 
d="M50 237h308v146h-308v-146z" />
    <glyph glyph-name="period" unicode="." horiz-adv-x="286" 
d="M62 0h162v160h-162v-160z" />
    <glyph glyph-name="slash" unicode="/" horiz-adv-x="530" 
d="M-28 -128h129l443 926h-129z" />
    <glyph glyph-name="zero" unicode="0" horiz-adv-x="730" 
d="M589 92c58 69 87 155 87 258c0 104 -29 190 -86 259c-58 69 -133 103 -224 103c-92 0 -167 -34 -225 -103s-87 -156 -87 -259c0 -104 29 -190 86 -259s132 -103 224 -103s153 17 182 52c29 34 43 52 43 52zM255 190c-29 42 -43 95 -43 160s14 119 42 161
c28 41 65 62 110 62s82 -21 111 -63c29 -43 43 -96 43 -160c0 -65 -14 -119 -41 -160c-28 -42 -65 -63 -111 -63s-76 11 -90 32s-21 31 -21 31z" />
    <glyph glyph-name="one" unicode="1" horiz-adv-x="422" 
d="M178 0h152v705h-105l-201 -60l32 -126l122 30v-549z" />
    <glyph glyph-name="two" unicode="2" horiz-adv-x="623" 
d="M49 0h518v133h-305l114 88c47 36 82 66 105 89s42 49 57 80c15 30 22 64 22 102c0 66 -22 119 -66 159c-44 39 -102 59 -175 59c-59 0 -108 -12 -147 -35s-77 -60 -114 -110l108 -87c27 34 52 58 73 73c21 14 44 21 70 21c28 0 51 -8 68 -24s26 -38 26 -67
c0 -28 -9 -53 -26 -76s-49 -54 -95 -92l-233 -191v-122z" />
    <glyph glyph-name="three" unicode="3" horiz-adv-x="621" 
d="M311 -12c77 0 138 21 184 64c45 43 68 98 68 165c0 111 -63 177 -188 198l177 169v116h-473v-132h275l-167 -168l24 -98h64c43 0 77 -8 101 -23s36 -37 36 -66c0 -27 -9 -48 -27 -63c-19 -16 -43 -24 -72 -24c-63 0 -119 28 -169 84l-106 -101c68 -81 159 -121 273 -121z
" />
    <glyph glyph-name="four" unicode="4" horiz-adv-x="689" 
d="M398 0h147v151h94v125h-94v429h-130l-384 -445l25 -109h342v-151zM212 276l186 218v-218h-186z" />
    <glyph glyph-name="five" unicode="5" horiz-adv-x="630" 
d="M305 -12c81 0 145 22 194 66c48 43 72 102 72 176c0 76 -23 133 -68 170s-104 56 -177 56c-29 0 -60 -4 -92 -12l8 121h298v135h-430l-20 -345l89 -59c41 17 80 26 117 26s67 -8 90 -25s34 -41 34 -70c0 -31 -10 -56 -31 -73s-49 -26 -86 -26c-55 0 -111 25 -167 76
l-93 -111c73 -70 161 -105 262 -105z" />
    <glyph glyph-name="six" unicode="6" horiz-adv-x="662" 
d="M339 -12c77 0 140 23 191 68s76 103 76 174s-23 127 -69 166s-105 59 -177 59c-51 0 -100 -15 -145 -45c5 49 20 88 44 118c23 29 56 44 97 44c28 0 53 -4 74 -13s44 -24 69 -43l81 119c-65 51 -138 77 -219 77c-101 0 -177 -35 -229 -106s-78 -163 -78 -276
c0 -123 28 -212 83 -267c50 -50 117 -75 202 -75zM244 150c-22 19 -33 44 -33 74c0 31 11 56 32 75s51 28 88 28s67 -9 89 -28s33 -44 33 -74c0 -31 -11 -57 -32 -76s-51 -29 -88 -29s-61 5 -72 15s-17 15 -17 15z" />
    <glyph glyph-name="seven" unicode="7" horiz-adv-x="619" 
d="M84 0h174l314 584v116h-504v-133h329z" />
    <glyph glyph-name="eight" unicode="8" horiz-adv-x="630" 
d="M315 -10c79 0 144 19 195 56c50 37 75 87 75 150c0 41 -9 74 -28 99s-47 48 -85 68c59 36 89 87 89 153c0 56 -23 102 -68 139s-105 55 -178 55s-132 -18 -177 -55c-46 -37 -69 -82 -69 -137c0 -67 30 -119 89 -155c-75 -35 -113 -91 -113 -169c0 -61 25 -111 76 -148
s115 -56 194 -56zM243 439c-19 16 -28 36 -28 61c0 23 9 43 27 59s42 24 73 24c30 0 54 -8 73 -24c18 -16 27 -35 27 -58c0 -26 -9 -47 -27 -63c-19 -16 -43 -24 -73 -24s-50 4 -59 12s-13 13 -13 13zM315 117c-37 0 -66 8 -88 25s-33 37 -33 62c0 27 11 49 34 65
c22 15 51 23 87 23s65 -8 88 -23c22 -15 33 -36 33 -63c0 -26 -11 -47 -32 -64c-22 -17 -52 -25 -89 -25z" />
    <glyph glyph-name="nine" unicode="9" horiz-adv-x="662" 
d="M302 -12c97 0 173 35 226 104s80 162 80 278c0 122 -28 211 -83 266c-27 27 -55 46 -86 58s-70 18 -116 18c-79 0 -143 -23 -192 -69c-50 -47 -75 -105 -75 -176s23 -127 68 -167c45 -41 105 -61 182 -61c57 0 105 16 142 48c-5 -49 -20 -87 -44 -116s-57 -43 -98 -43
c-52 0 -103 20 -153 60l-81 -117c67 -55 143 -83 230 -83zM242 396c-22 19 -33 45 -33 76c0 33 11 59 32 79c21 19 50 29 87 29c38 0 68 -10 90 -30s33 -46 33 -77s-11 -57 -32 -76c-21 -20 -51 -30 -88 -30s-61 5 -72 15c-11 9 -17 14 -17 14z" />
    <glyph glyph-name="colon" unicode=":" horiz-adv-x="296" 
d="M67 376h162v160h-162v-160zM67 0h162v160h-162v-160z" />
    <glyph glyph-name="semicolon" unicode=";" horiz-adv-x="296" 
d="M67 376h162v160h-162v-160zM44 -162c61 1 108 17 139 47c31 29 46 76 46 140v135h-162v-160h62v-11c0 -51 -33 -81 -98 -88z" />
    <glyph glyph-name="less" unicode="&#x3c;" horiz-adv-x="640" 
d="M552 71v143l-338 139l338 139v141l-484 -212v-138z" />
    <glyph glyph-name="equal" unicode="=" horiz-adv-x="640" 
d="M83 413h474v138h-474v-138zM83 153h474v138h-474v-138z" />
    <glyph glyph-name="greater" unicode="&#x3e;" horiz-adv-x="640" 
d="M88 71l484 212v138l-484 212v-143l338 -139l-338 -139v-141z" />
    <glyph glyph-name="question" unicode="?" horiz-adv-x="544" 
d="M197 238h102l11 61c131 27 197 94 197 201c0 66 -22 117 -66 154s-103 55 -176 55c-98 0 -180 -36 -245 -108l92 -101c46 46 96 69 150 69c29 0 52 -6 68 -18c16 -13 24 -30 24 -53c0 -57 -58 -88 -175 -93l-5 -5zM164 0h162v160h-162v-160z" />
    <glyph glyph-name="at" unicode="@" horiz-adv-x="980" 
d="M499 -162c95 0 183 25 265 75l-20 32c-76 -45 -158 -67 -245 -67c-117 0 -213 38 -289 115c-77 76 -115 170 -115 281s38 205 114 282s170 116 282 116c110 0 203 -36 280 -107c76 -71 114 -154 114 -249c0 -64 -12 -114 -36 -150s-54 -54 -91 -54c-23 0 -40 6 -53 18
c-13 11 -20 26 -20 45c0 11 1 21 3 31l47 269l-118 19l-11 -53c-33 45 -79 68 -138 68s-111 -24 -156 -73s-68 -109 -68 -178c0 -58 18 -105 53 -140s78 -53 130 -53c55 0 104 20 148 60c35 -40 86 -60 153 -60c58 0 106 22 143 66c37 43 56 105 56 185
c0 105 -43 197 -128 277c-85 79 -188 119 -308 119c-122 0 -225 -43 -310 -129s-128 -189 -128 -309c0 -121 43 -223 128 -308s191 -128 318 -128zM462 168c-28 0 -51 9 -68 26s-26 40 -26 71c0 39 12 73 36 100c23 27 51 41 84 41c27 0 50 -9 67 -26s26 -40 26 -68
c0 -41 -12 -75 -35 -102c-24 -28 -52 -42 -84 -42z" />
    <glyph glyph-name="A" unicode="A" horiz-adv-x="790" 
d="M24 0h157l64 157h296l64 -157h161l-300 705h-142zM300 293l93 227l93 -227h-186z" />
    <glyph glyph-name="B" unicode="B" horiz-adv-x="722" 
d="M84 0h333c81 0 145 16 192 49s70 80 70 143c0 45 -11 82 -33 109s-55 48 -98 65c61 35 92 85 92 151c0 49 -16 89 -48 121c-41 41 -102 62 -183 62h-325v-700zM234 417v148h152c33 0 58 -6 75 -18c17 -13 26 -31 26 -54c0 -51 -37 -76 -111 -76h-142zM234 135v154h178
c76 0 114 -25 114 -76c0 -52 -36 -78 -109 -78h-183z" />
    <glyph glyph-name="C" unicode="C" horiz-adv-x="738" 
d="M412 -12c65 0 119 10 164 29c44 19 85 49 123 90l-98 105c-31 -28 -60 -49 -87 -62s-60 -20 -97 -20c-59 0 -107 21 -145 64c-39 43 -58 95 -58 156c0 62 19 114 58 157c38 42 86 63 145 63c37 0 69 -6 96 -18c26 -13 54 -33 84 -60l92 106c-37 37 -77 65 -118 85
c-41 19 -92 29 -153 29c-106 0 -193 -35 -262 -105s-103 -156 -103 -257c0 -102 34 -188 103 -257c68 -70 153 -105 256 -105z" />
    <glyph glyph-name="D" unicode="D" horiz-adv-x="782" 
d="M84 0h273c109 0 198 33 268 100c69 67 104 150 104 250c0 101 -35 184 -104 251c-69 66 -159 99 -268 99h-273v-700zM238 139v422h119c63 0 114 -20 153 -59s58 -90 58 -152c0 -63 -19 -113 -58 -152s-90 -59 -153 -59h-119z" />
    <glyph glyph-name="E" unicode="E" horiz-adv-x="670" 
d="M84 0h533v137h-380v147h330v137h-330v142h375v137h-528v-700z" />
    <glyph glyph-name="F" unicode="F" horiz-adv-x="656" 
d="M84 0h154v271h334v140h-334v149h379v140h-533v-700z" />
    <glyph glyph-name="G" unicode="G" horiz-adv-x="784" 
d="M421 -12c112 0 212 37 299 111v304h-304v-133h155v-100c-39 -28 -88 -42 -145 -42c-62 0 -113 21 -152 63c-40 42 -60 95 -60 159c0 61 20 113 59 156s86 64 142 64c38 0 71 -6 98 -17s56 -29 85 -54l97 117c-39 33 -79 57 -121 73c-42 15 -93 23 -154 23
c-105 0 -192 -35 -262 -105c-70 -71 -105 -156 -105 -257c0 -105 34 -192 103 -260c68 -68 156 -102 265 -102z" />
    <glyph glyph-name="H" unicode="H" horiz-adv-x="760" 
d="M84 0h154v281h284v-281h154v700h-154v-277h-284v277h-154v-700z" />
    <glyph glyph-name="I" unicode="I" horiz-adv-x="336" 
d="M91 0h154v700h-154v-700z" />
    <glyph glyph-name="J" unicode="J" horiz-adv-x="564" 
d="M243 -10c78 0 139 22 182 65c44 44 66 106 66 187v458h-158v-451c0 -77 -31 -116 -94 -116c-43 0 -85 23 -128 70l-97 -108c59 -70 135 -105 229 -105z" />
    <glyph glyph-name="K" unicode="K" horiz-adv-x="730" 
d="M84 0h154v214l81 84l217 -298h185l-298 403l285 297h-186l-284 -306v306h-154v-700z" />
    <glyph glyph-name="L" unicode="L" horiz-adv-x="619" 
d="M84 0h503v140h-349v560h-154v-700z" />
    <glyph glyph-name="M" unicode="M" horiz-adv-x="868" 
d="M84 0h151v454l195 -296h4l197 299v-457h153v700h-166l-184 -296l-184 296h-166v-700z" />
    <glyph glyph-name="N" unicode="N" horiz-adv-x="790" 
d="M84 0h152v445l339 -445h131v700h-152v-431l-328 431h-142v-700z" />
    <glyph glyph-name="O" unicode="O" horiz-adv-x="850" 
d="M691 94c71 70 106 155 106 256s-35 187 -105 257c-71 70 -159 105 -266 105s-195 -35 -266 -105c-71 -71 -107 -156 -107 -257s35 -187 106 -257c70 -70 158 -105 265 -105s178 18 213 53c36 35 54 53 54 53zM274 194c-40 43 -60 95 -60 156c0 62 20 114 59 157
c39 42 90 63 151 63s112 -21 152 -64s60 -95 60 -156c0 -62 -20 -114 -59 -156c-39 -43 -90 -64 -151 -64s-102 11 -122 32s-30 32 -30 32z" />
    <glyph glyph-name="P" unicode="P" horiz-adv-x="668" 
d="M84 0h154v210h117c82 0 150 22 203 65s80 103 80 181c0 73 -24 132 -72 177s-113 67 -196 67h-286v-700zM238 347v214h119c39 0 70 -9 92 -27c22 -19 33 -45 33 -79c0 -32 -11 -58 -32 -78c-22 -20 -52 -30 -90 -30h-122z" />
    <glyph glyph-name="Q" unicode="Q" horiz-adv-x="850" 
d="M709 -21l98 109l-72 61c41 60 62 127 62 201c0 101 -35 187 -105 257c-71 70 -159 105 -266 105s-195 -35 -266 -105c-71 -71 -107 -156 -107 -257s35 -187 106 -257c70 -70 158 -105 265 -105c77 0 146 20 208 60zM426 130c-61 0 -112 21 -152 64s-60 95 -60 156
c0 62 20 114 59 157c39 42 90 63 151 63s112 -21 152 -64s60 -95 60 -156c0 -37 -6 -70 -19 -98l-115 104l-98 -110l114 -97c-29 -13 -59 -19 -92 -19z" />
    <glyph glyph-name="R" unicode="R" horiz-adv-x="723" 
d="M84 0h154v224h119l152 -224h180l-171 250c100 37 150 110 150 217c0 68 -20 122 -60 162c-47 47 -115 71 -204 71h-320v-700zM238 360v201h153c38 0 68 -8 89 -25s32 -42 32 -75c0 -31 -10 -55 -31 -73c-21 -19 -50 -28 -87 -28h-156z" />
    <glyph glyph-name="S" unicode="S" horiz-adv-x="640" 
d="M333 -10c77 0 140 19 187 58c47 38 70 91 70 159c0 59 -18 104 -54 135s-92 57 -168 77c-62 16 -103 30 -122 41s-29 28 -29 51c0 19 8 34 24 46c15 11 37 17 66 17c55 0 116 -23 182 -69l80 116c-74 59 -161 89 -260 89c-72 0 -131 -19 -176 -58
c-46 -39 -69 -90 -69 -153c0 -34 5 -63 16 -87c10 -25 26 -45 49 -61c22 -16 45 -29 70 -38c25 -10 57 -20 97 -30c57 -15 94 -28 113 -40c19 -13 28 -29 28 -49c0 -21 -9 -38 -27 -50s-43 -18 -74 -18c-71 0 -140 28 -209 85l-91 -109c83 -75 182 -112 297 -112z" />
    <glyph glyph-name="T" unicode="T" horiz-adv-x="648" 
d="M247 0h154v558h213v142h-580v-142h213v-558z" />
    <glyph glyph-name="U" unicode="U" horiz-adv-x="756" 
d="M376 -11c96 0 171 27 226 80c54 53 81 132 81 236v395h-154v-401c0 -55 -13 -96 -39 -125c-27 -29 -64 -43 -112 -43s-85 15 -111 45c-27 29 -40 72 -40 128v396h-154v-400c0 -101 27 -178 80 -231s128 -80 223 -80z" />
    <glyph glyph-name="V" unicode="V" horiz-adv-x="750" 
d="M307 -5h136l283 705h-166l-183 -493l-183 493h-170z" />
    <glyph glyph-name="W" unicode="W" horiz-adv-x="1122" 
d="M269 -5h134l158 458l158 -458h134l239 705h-161l-145 -474l-157 476h-132l-157 -476l-145 474h-165z" />
    <glyph glyph-name="X" unicode="X" horiz-adv-x="732" 
d="M31 0h175l158 240l157 -240h180l-244 358l234 342h-175l-148 -227l-147 227h-180l234 -344z" />
    <glyph glyph-name="Y" unicode="Y" horiz-adv-x="716" 
d="M281 0h154v279l269 421h-175l-170 -281l-167 281h-180l269 -424v-276z" />
    <glyph glyph-name="Z" unicode="Z" horiz-adv-x="708" 
d="M63 0h583v135h-385l385 448v117h-571v-135h373l-385 -448v-117z" />
    <glyph glyph-name="bracketleft" unicode="[" horiz-adv-x="465" 
d="M83 -130h323v119h-177v592h177v119h-323v-830z" />
    <glyph glyph-name="backslash" unicode="\" horiz-adv-x="530" 
d="M429 -128h129l-443 926h-129z" />
    <glyph glyph-name="bracketright" unicode="]" horiz-adv-x="465" 
d="M59 -130h323v830h-323v-119h177v-592h-177v-119z" />
    <glyph glyph-name="asciicircum" unicode="^" 
d="M50 493h108l91 117l91 -117h110l-148 207h-104z" />
    <glyph glyph-name="underscore" unicode="_" horiz-adv-x="600" 
d="M-2 -160h604v116h-604v-116z" />
    <glyph glyph-name="grave" unicode="`" 
d="M238 595h116l-113 177l-131 -57z" />
    <glyph glyph-name="a" unicode="a" horiz-adv-x="592" 
d="M220 -10c67 0 121 23 162 68v-58h147v311c0 75 -19 132 -58 171c-40 40 -100 60 -181 60c-73 0 -143 -14 -208 -43l38 -116c53 19 102 29 148 29c77 0 115 -33 115 -98v-9c-43 15 -86 22 -131 22c-66 0 -118 -14 -157 -43s-59 -71 -59 -128c0 -52 18 -93 53 -122
s78 -44 131 -44zM266 95c-25 0 -45 6 -60 18c-15 11 -23 27 -23 47c0 25 9 44 28 57c18 13 44 19 77 19c36 0 68 -7 97 -20v-27c0 -27 -11 -50 -33 -67c-22 -18 -51 -27 -86 -27z" />
    <glyph glyph-name="b" unicode="b" horiz-adv-x="675" 
d="M387 -10c67 0 125 25 173 75c47 49 71 117 71 202c0 86 -24 154 -72 204s-105 75 -172 75c-69 0 -124 -29 -167 -87v271h-152v-730h152v70c45 -53 100 -80 167 -80zM256 161c-25 27 -38 63 -38 106c0 45 13 81 38 109c25 27 55 41 92 41s68 -14 93 -41
c25 -28 38 -64 38 -107c0 -45 -13 -81 -38 -108c-25 -28 -56 -42 -93 -42s-61 7 -74 21z" />
    <glyph glyph-name="c" unicode="c" horiz-adv-x="571" 
d="M321 -12c50 0 92 8 125 25s65 41 94 73l-89 90c-40 -38 -81 -57 -123 -57c-41 0 -73 14 -98 43c-25 28 -38 63 -38 105c0 41 12 76 37 105s56 43 93 43c46 0 88 -18 125 -53l89 90c-56 63 -127 94 -213 94c-81 0 -148 -27 -201 -81c-53 -55 -80 -121 -80 -198
c0 -78 27 -144 80 -198s119 -81 199 -81z" />
    <glyph glyph-name="d" unicode="d" horiz-adv-x="675" 
d="M288 -10c69 0 124 29 167 87v-77h152v730h-152v-264c-45 53 -100 80 -167 80s-125 -25 -172 -74c-48 -50 -72 -118 -72 -203c0 -86 24 -154 72 -204s105 -75 172 -75zM234 161c-25 27 -38 63 -38 106c0 45 13 81 38 109c25 27 56 41 93 41s68 -14 93 -41
c25 -28 37 -64 37 -107c0 -45 -12 -81 -37 -108c-25 -28 -56 -42 -93 -42s-61 7 -74 21s-19 21 -19 21z" />
    <glyph glyph-name="e" unicode="e" horiz-adv-x="613" 
d="M322 -12c92 0 165 33 219 100l-87 77c-39 -37 -83 -55 -130 -55c-35 0 -63 9 -86 27s-38 44 -45 78h373c1 19 2 32 2 40c0 82 -22 151 -67 207s-109 84 -194 84c-77 0 -140 -27 -190 -81s-75 -120 -75 -198c0 -83 26 -150 79 -201c53 -52 120 -78 201 -78zM191 310
c6 35 19 63 40 84c20 20 45 30 76 30s57 -10 77 -31c19 -21 31 -48 36 -83h-229z" />
    <glyph glyph-name="f" unicode="f" horiz-adv-x="382" 
d="M94 0h152v406h121v124h-123v21c0 39 18 58 55 58c22 0 45 -4 69 -13v126c-31 10 -67 15 -108 15c-54 0 -95 -14 -123 -42c-29 -29 -43 -72 -43 -130v-34h-63v-125h63v-406z" />
    <glyph glyph-name="g" unicode="g" horiz-adv-x="675" 
d="M308 -162c106 0 183 24 231 72c45 45 68 116 68 211v415h-152v-70c-49 53 -106 80 -173 80c-65 0 -121 -22 -168 -67s-70 -106 -70 -183s23 -139 70 -184c46 -45 102 -68 168 -68c39 0 72 7 99 22c27 14 52 36 76 65v-26c0 -97 -51 -146 -153 -146c-63 0 -123 16 -181 49
l-52 -114c71 -37 150 -56 237 -56zM233 205c-25 23 -37 52 -37 89s12 68 37 91s56 35 93 35s69 -12 94 -35s37 -53 37 -89c0 -37 -12 -68 -37 -91s-57 -35 -94 -35s-62 6 -74 17c-13 12 -19 18 -19 18z" />
    <glyph glyph-name="h" unicode="h" horiz-adv-x="623" 
d="M68 0h152v299c0 35 9 62 26 81s40 28 69 28s52 -9 68 -28s24 -46 24 -81v-299h152v347c0 62 -16 111 -48 146s-77 53 -134 53c-60 0 -112 -29 -157 -86v270h-152v-730z" />
    <glyph glyph-name="i" unicode="i" horiz-adv-x="302" 
d="M71 595h160v135h-160v-135zM75 0h152v536h-152v-536z" />
    <glyph glyph-name="j" unicode="j" horiz-adv-x="302" 
d="M71 595h160v135h-160v-135zM55 -163c115 0 172 57 172 172v527h-152v-515c0 -41 -18 -62 -54 -62c-9 0 -20 1 -32 3v-119c21 -4 43 -6 66 -6z" />
    <glyph glyph-name="k" unicode="k" horiz-adv-x="592" 
d="M68 0h152v163l53 56l140 -219h174l-211 325l204 211h-182l-178 -195v389h-152v-730z" />
    <glyph glyph-name="l" unicode="l" horiz-adv-x="302" 
d="M75 0h152v730h-152v-730z" />
    <glyph glyph-name="m" unicode="m" horiz-adv-x="950" 
d="M68 0h152v299c0 35 8 62 25 81c16 19 38 28 67 28c59 0 89 -36 89 -109v-299h152v299c0 35 8 62 25 81c16 19 38 28 67 28c59 0 89 -36 89 -109v-299h152v349c0 64 -16 113 -47 147c-32 33 -77 50 -134 50c-69 0 -127 -28 -176 -85c-29 57 -80 85 -151 85
c-61 0 -113 -29 -158 -86v76h-152v-536z" />
    <glyph glyph-name="n" unicode="n" horiz-adv-x="623" 
d="M68 0h152v299c0 35 9 62 26 81s40 28 69 28s52 -9 68 -28s24 -46 24 -81v-299h152v347c0 62 -16 111 -48 146s-77 53 -134 53c-60 0 -112 -29 -157 -86v76h-152v-536z" />
    <glyph glyph-name="o" unicode="o" horiz-adv-x="664" 
d="M539 69c55 54 83 120 83 198c0 79 -27 145 -82 199c-55 53 -124 80 -207 80s-152 -27 -207 -81c-56 -54 -84 -120 -84 -198c0 -79 28 -145 83 -198c55 -54 123 -81 206 -81s138 14 166 41s42 40 42 40zM333 119c-41 0 -75 15 -101 44c-27 29 -40 63 -40 104
c0 42 13 77 38 106c25 28 59 42 101 42c41 0 75 -14 102 -43c26 -29 39 -64 39 -105c0 -42 -13 -77 -38 -105c-25 -29 -59 -43 -101 -43z" />
    <glyph glyph-name="p" unicode="p" horiz-adv-x="675" 
d="M68 -160h152v230c45 -53 100 -80 167 -80s125 25 173 75c47 49 71 117 71 202c0 86 -24 154 -72 204s-105 75 -172 75c-69 0 -124 -29 -167 -87v77h-152v-696zM256 161c-25 27 -38 63 -38 106c0 45 13 81 38 109c25 27 55 41 92 41s68 -14 93 -41c25 -28 38 -64 38 -107
c0 -45 -13 -81 -38 -108c-25 -28 -56 -42 -93 -42s-61 7 -74 21z" />
    <glyph glyph-name="q" unicode="q" horiz-adv-x="675" 
d="M455 -160h152v696h-152v-70c-45 53 -100 80 -167 80s-125 -25 -172 -74c-48 -50 -72 -118 -72 -203c0 -86 24 -154 72 -204s105 -75 172 -75c69 0 124 29 167 87v-237zM234 161c-25 27 -38 63 -38 106c0 45 13 81 38 109c25 27 56 41 93 41s68 -14 93 -41
c25 -28 37 -64 37 -107c0 -45 -12 -81 -37 -108c-25 -28 -56 -42 -93 -42s-61 7 -74 21s-19 21 -19 21z" />
    <glyph glyph-name="r" unicode="r" horiz-adv-x="418" 
d="M68 0h152v198c0 63 14 110 43 142c28 31 68 47 120 47h8v159c-79 3 -136 -36 -171 -118v108h-152v-536z" />
    <glyph glyph-name="s" unicode="s" horiz-adv-x="502" 
d="M256 -10c61 0 111 15 149 44c37 29 56 72 56 129c0 19 -3 37 -10 53s-15 29 -24 40c-10 10 -23 20 -39 29s-30 17 -43 22s-28 11 -46 17c-4 1 -10 3 -17 6c-61 21 -92 40 -92 58c0 26 19 39 56 39c40 0 88 -17 145 -50l58 105c-61 41 -128 62 -200 62
c-56 0 -103 -15 -140 -45c-37 -31 -56 -72 -56 -125c0 -25 5 -47 14 -66s22 -35 39 -47c17 -13 34 -22 50 -29c15 -7 34 -14 57 -21c5 -1 11 -3 19 -5c8 -3 14 -5 19 -6s10 -3 17 -5c7 -3 12 -5 16 -6c3 -2 8 -4 13 -6c5 -3 9 -5 12 -7l8 -8s5 -6 6 -9s1 -7 1 -10
c0 -28 -21 -42 -64 -42c-54 0 -110 21 -169 64l-65 -100c69 -54 145 -81 230 -81z" />
    <glyph glyph-name="t" unicode="t" horiz-adv-x="415" 
d="M249 -9c45 0 85 10 120 31v122c-23 -13 -48 -19 -75 -19c-33 0 -49 17 -49 52v229h126v130h-126v137h-152v-137h-64v-130h64v-254c0 -59 14 -100 41 -124c27 -25 65 -37 115 -37z" />
    <glyph glyph-name="u" unicode="u" horiz-adv-x="623" 
d="M246 -10c60 0 112 29 157 86v-76h152v536h-152v-299c0 -35 -8 -62 -25 -81s-41 -28 -70 -28s-52 9 -68 28s-24 46 -24 81v299h-152v-347c0 -62 16 -111 48 -146s77 -53 134 -53z" />
    <glyph glyph-name="v" unicode="v" horiz-adv-x="600" 
d="M231 -4h138l211 540h-158l-121 -359l-120 359h-161z" />
    <glyph glyph-name="w" unicode="w" horiz-adv-x="861" 
d="M189 -4h136l105 329l103 -329h137l167 540h-151l-88 -326l-102 328h-131l-101 -327l-86 325h-154z" />
    <glyph glyph-name="x" unicode="x" horiz-adv-x="584" 
d="M23 0h159l108 167l108 -167h163l-189 275l181 261h-159l-101 -156l-100 156h-163l181 -264z" />
    <glyph glyph-name="y" unicode="y" horiz-adv-x="600" 
d="M196 -163c45 0 80 11 106 34c26 22 49 61 70 116l206 549h-158l-117 -365l-122 365h-161l210 -538c-11 -23 -29 -35 -53 -35c-20 0 -42 7 -65 21l-51 -110c42 -25 87 -37 135 -37z" />
    <glyph glyph-name="z" unicode="z" horiz-adv-x="563" 
d="M50 0h466v123h-278l278 306v107h-457v-123h268l-277 -306v-107z" />
    <glyph glyph-name="braceleft" unicode="{" horiz-adv-x="490" 
d="M416 -141l27 101c-51 15 -84 30 -99 47c-15 16 -23 40 -23 72c0 7 1 19 2 37c1 17 1 30 1 37c0 67 -35 111 -104 134c69 23 104 67 104 134c0 7 0 20 -1 38c-1 17 -2 29 -2 36c0 32 8 56 23 73c15 16 48 31 99 46l-27 101c-88 -15 -149 -39 -183 -70s-51 -74 -51 -128
c0 -5 1 -16 2 -33c1 -18 1 -30 1 -36c0 -39 -8 -65 -25 -80s-45 -23 -85 -23h-26v-116h26c40 0 68 -7 85 -22s25 -42 25 -81c0 -6 0 -18 -1 -35c-1 -18 -2 -29 -2 -34c0 -54 17 -97 51 -128s95 -55 183 -70z" />
    <glyph glyph-name="bar" unicode="|" horiz-adv-x="350" 
d="M115 -128h120v926h-120v-926z" />
    <glyph glyph-name="braceright" unicode="}" horiz-adv-x="490" 
d="M74 -141c88 15 149 39 183 70s51 74 51 128c0 5 0 16 -1 34c-1 17 -2 29 -2 35c0 39 8 66 25 81s45 22 85 22h26v116h-26c-40 0 -68 8 -85 23s-25 41 -25 80c0 6 1 18 2 36c1 17 1 28 1 33c0 54 -17 97 -51 128s-95 55 -183 70l-27 -101c51 -15 84 -30 99 -46
c15 -17 23 -41 23 -73c0 -7 0 -19 -1 -36c-1 -18 -2 -31 -2 -38c0 -67 35 -111 104 -134c-69 -23 -104 -67 -104 -134c0 -7 1 -20 2 -37c1 -18 1 -30 1 -37c0 -32 -8 -56 -23 -72c-15 -17 -48 -32 -99 -47z" />
    <glyph glyph-name="asciitilde" unicode="~" horiz-adv-x="510" 
d="M130 224c8 17 16 30 24 38c7 7 18 11 33 11c10 0 32 -6 66 -19c33 -13 61 -20 84 -20c33 0 58 12 77 35s34 57 47 103l-81 25c-8 -17 -16 -30 -23 -37c-8 -8 -19 -12 -34 -12c-10 0 -32 7 -65 20c-34 13 -62 19 -85 19c-33 0 -58 -11 -77 -34s-34 -58 -47 -104z" />
    <glyph glyph-name="[namenotfound]" unicode="&#xa0;" horiz-adv-x="300" 
 />
    <glyph glyph-name="exclamdown" unicode="&#xa1;" horiz-adv-x="324" 
d="M81 540h162v160h-162v-160zM73 0h178v20l-47 442h-84l-47 -442v-20z" />
    <glyph glyph-name="cent" unicode="&#xa2;" horiz-adv-x="581" 
d="M208 -6h104l16 82c84 2 155 36 214 101l-86 87c-35 -33 -71 -51 -108 -56l55 277c15 -7 31 -20 49 -38l90 97c-33 36 -69 61 -108 74l17 88h-104l-14 -72h-6c-80 0 -147 -27 -200 -81s-80 -120 -80 -198c0 -60 17 -114 50 -161c33 -48 76 -82 130 -102zM258 226
c-43 26 -64 69 -64 129c0 40 11 74 33 102s50 43 85 46z" />
    <glyph glyph-name="sterling" unicode="&#xa3;" horiz-adv-x="644" 
d="M60 0h536v133h-304v134h228v127h-228v77c0 32 9 57 26 74c15 15 34 22 57 22c21 0 39 -5 55 -15c16 -11 33 -28 51 -51l117 94c-57 77 -132 115 -225 115c-75 0 -134 -21 -177 -64c-40 -40 -60 -97 -60 -171v-81h-76v-127h76v-141l-76 -25v-101z" />
    <glyph glyph-name="currency" unicode="&#xa4;" horiz-adv-x="720" 
d="M437 -12c54 0 100 12 139 36c39 23 74 57 106 102l-110 81c-24 -29 -46 -50 -65 -63s-43 -19 -70 -19c-63 0 -108 31 -135 92h186v101h-208c-1 7 -1 17 -1 32c0 17 0 29 1 36h208v101h-185c27 59 70 88 128 88c28 0 52 -6 73 -19c20 -13 40 -33 60 -60l116 88
c-29 41 -63 73 -101 95c-39 22 -87 33 -145 33c-71 0 -132 -20 -183 -61s-87 -96 -108 -164h-94v-101h75c-1 -8 -1 -20 -1 -36c0 -15 0 -25 1 -32h-75v-101h92c20 -71 56 -126 107 -167s114 -62 189 -62z" />
    <glyph glyph-name="yen" unicode="&#xa5;" horiz-adv-x="686" 
d="M269 0h148v92h184v108h-184v62h184v108h-145l216 330h-172l-155 -259l-154 259h-177l214 -330h-143v-108h184v-62h-184v-108h184v-92z" />
    <glyph glyph-name="brokenbar" unicode="&#xa6;" horiz-adv-x="222" 
d="M182 411v250h-142v-250h142zM182 -89v250h-142v-250h142z" />
    <glyph glyph-name="section" unicode="&#xa7;" horiz-adv-x="632" 
d="M325 -10c64 0 114 14 151 42c36 28 54 66 54 113c0 40 -14 71 -42 93c59 22 89 61 89 117c0 39 -17 69 -50 91c-34 22 -91 42 -172 60c-45 10 -75 19 -89 27c-14 7 -21 17 -21 28c0 25 22 38 66 38c50 0 99 -22 147 -66l82 82c-58 63 -136 95 -233 95
c-64 0 -114 -14 -150 -41c-37 -28 -55 -66 -55 -114c0 -40 14 -71 42 -93c-59 -22 -89 -61 -89 -117c0 -38 17 -68 51 -90c34 -23 91 -43 171 -61c43 -9 73 -18 88 -25c15 -8 22 -18 22 -30c0 -25 -22 -38 -66 -38c-50 0 -99 22 -147 66l-82 -82c58 -63 136 -95 233 -95z
M389 289c-19 0 -52 6 -100 18c-36 9 -62 17 -77 26c-16 9 -24 19 -24 32c0 15 5 26 16 34c10 8 23 12 39 12c19 0 52 -6 100 -18c36 -9 62 -17 78 -26c15 -9 23 -19 23 -32c0 -15 -5 -26 -15 -34c-11 -8 -24 -12 -40 -12z" />
    <glyph glyph-name="dieresis" unicode="&#xa8;" 
d="M284 595h146v135h-146v-135zM70 595h146v135h-146v-135z" />
    <glyph glyph-name="copyright" unicode="&#xa9;" horiz-adv-x="830" 
d="M671 95c71 71 106 156 106 255c0 100 -35 185 -105 256s-155 106 -256 106s-186 -35 -257 -106s-106 -157 -106 -256c0 -100 35 -185 105 -256s155 -106 256 -106s169 18 204 53c35 36 53 54 53 54zM187 121c-61 62 -92 138 -92 227c0 90 31 167 93 230
c61 63 137 94 228 94s167 -31 228 -93s91 -138 91 -227c0 -90 -31 -166 -92 -229c-62 -63 -138 -95 -229 -95s-151 16 -182 47c-30 31 -45 46 -45 46zM419 156c63 0 115 23 158 69l-56 56c-33 -30 -66 -45 -99 -45c-32 0 -58 12 -79 35s-31 50 -31 83c0 34 10 63 31 86
s47 34 79 34c33 0 65 -14 97 -43l55 64c-41 39 -91 59 -152 59c-58 0 -106 -19 -143 -58c-38 -39 -57 -86 -57 -141c0 -56 19 -103 57 -141c37 -39 84 -58 140 -58z" />
    <glyph glyph-name="ordfeminine" unicode="&#xaa;" horiz-adv-x="390" 
d="M153 399c37 0 67 13 89 38v-32h81v171c0 41 -11 73 -32 94c-22 22 -55 33 -100 33c-41 0 -79 -8 -114 -24l21 -63c29 11 56 16 81 16c43 0 64 -18 64 -54v-5c-24 8 -48 12 -72 12c-37 0 -66 -8 -87 -24s-32 -39 -32 -70c0 -29 10 -51 29 -67c19 -17 43 -25 72 -25z
M49 277h278v66h-278v-66zM178 457c-13 0 -24 3 -32 10c-9 7 -13 15 -13 26c0 28 19 42 57 42c17 0 35 -4 54 -11v-15c0 -15 -6 -28 -18 -37c-13 -10 -29 -15 -48 -15z" />
    <glyph glyph-name="guillemotleft" unicode="&#xab;" horiz-adv-x="645" 
d="M481 40l116 58l-130 171l130 171l-116 56l-168 -224v-8zM209 40l116 58l-130 171l130 171l-116 56l-168 -224v-8z" />
    <glyph glyph-name="logicalnot" unicode="&#xac;" horiz-adv-x="640" 
d="M418 412v-170h142v306h-482v-136h340z" />
    <glyph glyph-name="Softhyphen" unicode="&#xad;" horiz-adv-x="408" 
d="M50 237h308v146h-308v-146z" />
    <glyph glyph-name="registered" unicode="&#xae;" horiz-adv-x="830" 
d="M671 95c71 71 106 156 106 255c0 100 -35 185 -105 256s-155 106 -256 106s-186 -35 -257 -106s-106 -157 -106 -256c0 -100 35 -185 105 -256s155 -106 256 -106s169 18 204 53c35 36 53 54 53 54zM187 121c-61 62 -92 138 -92 227c0 90 31 167 93 230
c61 63 137 94 228 94s167 -31 228 -93s91 -138 91 -227c0 -90 -31 -166 -92 -229c-62 -63 -138 -95 -229 -95s-151 16 -182 47c-30 31 -45 46 -45 46zM266 168h85v124h65l84 -124h99l-94 138c55 20 83 60 83 119c0 36 -11 65 -32 86c-28 28 -68 42 -119 42h-171v-385z
M351 365v113h83c45 0 68 -19 68 -56c0 -17 -6 -31 -17 -41c-11 -11 -28 -16 -49 -16h-85z" />
    <glyph glyph-name="macron" unicode="&#xaf;" 
d="M70 600h360v105h-360v-105z" />
    <glyph glyph-name="degree" unicode="&#xb0;" horiz-adv-x="480" 
d="M361 418c35 33 52 73 52 118c0 46 -17 86 -52 120c-35 33 -75 50 -121 50s-86 -17 -121 -50s-52 -73 -52 -118c0 -46 17 -86 52 -119c35 -34 75 -51 121 -51s78 8 95 25s26 25 26 25zM175 471c-18 18 -27 40 -27 65c0 26 9 48 27 67c17 19 39 28 65 28s48 -9 66 -27
c17 -19 26 -41 26 -66c0 -26 -9 -48 -26 -67c-18 -19 -40 -28 -66 -28s-43 5 -52 14s-13 14 -13 14z" />
    <glyph glyph-name="plusminus" unicode="&#xb1;" horiz-adv-x="640" 
d="M78 17h484v129h-484v-129zM250 207h141v141h178v136h-178v141h-141v-141h-181v-136h181v-141z" />
    <glyph glyph-name="Superscripttwo" unicode="&#xb2;" 
d="M0 0h500v700h-500v-700zM81 49l169 255l170 -255h-339zM49 96v508l171 -254zM450 96l-171 254l171 254v-508zM250 395l-169 255h339z" />
    <glyph glyph-name="Superscriptthree" unicode="&#xb3;" 
d="M0 0h500v700h-500v-700zM81 49l169 255l170 -255h-339zM49 96v508l171 -254zM450 96l-171 254l171 254v-508zM250 395l-169 255h339z" />
    <glyph glyph-name="acute" unicode="&#xb4;" 
d="M146 595h116l128 120l-131 57z" />
    <glyph glyph-name="mu" unicode="&#xb5;" horiz-adv-x="628" 
d="M220 10c7 -9 24 -14 50 -14c57 0 102 28 137 83v-79h153v536h-153v-297c0 -36 -8 -64 -25 -84c-17 -21 -41 -31 -71 -31c-26 0 -48 11 -65 33c-17 21 -26 47 -26 77v302h-152v-696h152v170z" />
    <glyph glyph-name="paragraph" unicode="&#xb6;" horiz-adv-x="590" 
d="M352 0h154v700h-195c-83 0 -150 -21 -200 -63c-51 -42 -76 -99 -76 -172c0 -76 27 -134 81 -174c54 -41 125 -61 212 -61h24v-230z" />
    <glyph glyph-name="periodcentered" unicode="&#xb7;" horiz-adv-x="286" 
d="M62 230h162v160h-162v-160z" />
    <glyph glyph-name="cedilla" unicode="&#xb8;" 
d="M245 -173l74 183h-112l-89 -130z" />
    <glyph glyph-name="Superscriptone" unicode="&#xb9;" 
d="M0 0h500v700h-500v-700zM81 49l169 255l170 -255h-339zM49 96v508l171 -254zM450 96l-171 254l171 254v-508zM250 395l-169 255h339z" />
    <glyph glyph-name="ordmasculine" unicode="&#xba;" horiz-adv-x="390" 
d="M305 443c29 29 44 65 44 108c0 44 -14 81 -43 110s-66 44 -110 44s-81 -15 -110 -44c-30 -30 -45 -66 -45 -109c0 -44 15 -81 44 -110s65 -44 109 -44s73 7 88 22zM51 277h288v66h-288v-66zM144 494c-14 16 -21 35 -21 57c0 23 7 43 20 59c13 15 30 23 51 23
s39 -8 53 -24c13 -16 20 -35 20 -57c0 -23 -6 -43 -19 -58c-13 -16 -31 -24 -52 -24s-35 4 -42 12s-10 12 -10 12z" />
    <glyph glyph-name="guillemotright" unicode="&#xbb;" horiz-adv-x="645" 
d="M436 40l168 224v8l-168 224l-116 -58l130 -171l-130 -171zM164 40l168 224v8l-168 224l-116 -58l130 -171l-130 -171z" />
    <glyph glyph-name="onequarter" unicode="&#xbc;" 
d="M0 0h500v700h-500v-700zM81 49l169 255l170 -255h-339zM49 96v508l171 -254zM450 96l-171 254l171 254v-508zM250 395l-169 255h339z" />
    <glyph glyph-name="onehalf" unicode="&#xbd;" 
d="M0 0h500v700h-500v-700zM81 49l169 255l170 -255h-339zM49 96v508l171 -254zM450 96l-171 254l171 254v-508zM250 395l-169 255h339z" />
    <glyph glyph-name="threequarters" unicode="&#xbe;" 
d="M0 0h500v700h-500v-700zM81 49l169 255l170 -255h-339zM49 96v508l171 -254zM450 96l-171 254l171 254v-508zM250 395l-169 255h339z" />
    <glyph glyph-name="questiondown" unicode="&#xbf;" horiz-adv-x="544" 
d="M218 540h162v160h-162v-160zM279 -9c98 0 180 36 245 108l-92 101c-46 -46 -96 -69 -150 -69c-29 0 -52 6 -68 19c-16 12 -24 29 -24 52v2c0 56 58 86 175 91l5 5l-23 162h-102l-11 -61c-131 -27 -197 -94 -197 -201v-2c0 -65 22 -116 66 -152c44 -37 103 -55 176 -55z
" />
    <glyph glyph-name="Agrave" unicode="&#xc0;" horiz-adv-x="790" 
d="M24 0h157l64 157h296l64 -157h161l-300 705h-142zM300 293l93 227l93 -227h-186zM343 755h116l-113 177l-131 -57z" />
    <glyph glyph-name="Aacute" unicode="&#xc1;" horiz-adv-x="790" 
d="M24 0h157l64 157h296l64 -157h161l-300 705h-142zM300 293l93 227l93 -227h-186zM331 755h116l128 120l-131 57z" />
    <glyph glyph-name="Acircumflex" unicode="&#xc2;" horiz-adv-x="790" 
d="M24 0h157l64 157h296l64 -157h161l-300 705h-142zM300 293l93 227l93 -227h-186zM200 755h115l79 66l79 -66h117l-123 157h-144z" />
    <glyph glyph-name="Atilde" unicode="&#xc3;" horiz-adv-x="790" 
d="M24 0h157l64 157h296l64 -157h161l-300 705h-142zM300 293l93 227l93 -227h-186zM270 745c8 17 16 30 24 38c7 7 18 11 33 11c10 0 32 -6 66 -19c33 -13 61 -20 84 -20c33 0 58 12 77 35s34 57 47 103l-81 25c-8 -17 -16 -30 -23 -37c-8 -8 -19 -12 -34 -12
c-10 0 -32 7 -65 20c-34 13 -62 19 -85 19c-33 0 -58 -11 -77 -34s-34 -58 -47 -104z" />
    <glyph glyph-name="Adieresis" unicode="&#xc4;" horiz-adv-x="790" 
d="M24 0h157l64 157h296l64 -157h161l-300 705h-142zM300 293l93 227l93 -227h-186zM429 755h146v135h-146v-135zM215 755h146v135h-146v-135z" />
    <glyph glyph-name="Aring" unicode="&#xc5;" horiz-adv-x="790" 
d="M24 0h157l64 157h296l64 -157h161l-292 687c28 25 42 54 42 87v2c0 31 -12 59 -36 82c-25 23 -53 34 -85 34s-60 -11 -84 -34c-25 -23 -37 -51 -37 -82v-2c0 -33 14 -62 42 -87zM352 731c-13 12 -19 26 -19 43v2c0 17 6 31 19 43c12 12 26 18 43 18s31 -6 44 -18
c12 -12 18 -26 18 -43v-2c0 -17 -6 -31 -18 -43c-13 -12 -27 -18 -44 -18s-28 3 -34 9zM300 293l93 227l93 -227h-186z" />
    <glyph glyph-name="AE" unicode="&#xc6;" horiz-adv-x="1045" 
d="M9 0h157l83 157h235v-157h508v137h-355v147h305v137h-305v142h350v137h-601zM321 293l145 274h18v-274h-163z" />
    <glyph glyph-name="Ccedilla" unicode="&#xc7;" horiz-adv-x="738" 
d="M373 -173l65 162c57 3 105 14 146 35s79 50 115 89l-98 99c-31 -28 -60 -49 -87 -62s-60 -20 -97 -20c-59 0 -107 21 -145 64c-39 43 -58 95 -58 156v2c0 61 19 112 58 155c39 42 87 63 145 63c61 0 121 -26 179 -79l98 113c-35 35 -75 62 -118 81c-43 18 -96 27 -158 27
c-106 0 -193 -35 -262 -105s-103 -156 -103 -257v-2c0 -86 25 -161 76 -225c51 -65 116 -106 197 -125l-80 -118z" />
    <glyph glyph-name="Egrave" unicode="&#xc8;" horiz-adv-x="670" 
d="M84 0h533v137h-380v147h330v137h-330v142h375v137h-528v-700zM317 755h116l-113 177l-131 -57z" />
    <glyph glyph-name="Eacute" unicode="&#xc9;" horiz-adv-x="670" 
d="M84 0h533v137h-380v147h330v137h-330v142h375v137h-528v-700zM264 755h116l128 120l-131 57z" />
    <glyph glyph-name="Ecircumflex" unicode="&#xca;" horiz-adv-x="670" 
d="M84 0h533v137h-380v147h330v137h-330v142h375v137h-528v-700zM151 755h115l79 66l79 -66h117l-123 157h-144z" />
    <glyph glyph-name="Edieresis" unicode="&#xcb;" horiz-adv-x="670" 
d="M84 0h533v137h-380v147h330v137h-330v142h375v137h-528v-700zM380 755h146v135h-146v-135zM166 755h146v135h-146v-135z" />
    <glyph glyph-name="Igrave" unicode="&#xcc;" horiz-adv-x="336" 
d="M91 0h154v700h-154v-700zM116 755h116l-113 177l-131 -57z" />
    <glyph glyph-name="Iacute" unicode="&#xcd;" horiz-adv-x="336" 
d="M91 0h154v700h-154v-700zM104 755h116l128 120l-131 57z" />
    <glyph glyph-name="Icircumflex" unicode="&#xce;" horiz-adv-x="336" 
d="M91 0h154v700h-154v-700zM-27 755h115l79 66l79 -66h117l-123 157h-144z" />
    <glyph glyph-name="Idieresis" unicode="&#xcf;" horiz-adv-x="336" 
d="M91 0h154v700h-154v-700zM202 755h146v135h-146v-135zM-12 755h146v135h-146v-135z" />
    <glyph glyph-name="Eth" unicode="&#xd0;" horiz-adv-x="812" 
d="M114 0h273c109 0 198 33 268 100c69 67 104 150 104 250c0 101 -35 184 -104 251c-69 66 -159 99 -268 99h-273v-280h-75v-136h75v-284zM266 139v145h152v136h-152v141h121c63 0 114 -20 153 -59s58 -90 58 -152c0 -63 -19 -113 -58 -152s-90 -59 -153 -59h-121z" />
    <glyph glyph-name="Ntilde" unicode="&#xd1;" horiz-adv-x="790" 
d="M84 0h152v445l339 -445h131v700h-152v-431l-328 431h-142v-700zM270 745c8 17 16 30 24 38c7 7 18 11 33 11c10 0 32 -6 66 -19c33 -13 61 -20 84 -20c33 0 58 12 77 35s34 57 47 103l-81 25c-8 -17 -16 -30 -23 -37c-8 -8 -19 -12 -34 -12c-10 0 -32 7 -65 20
c-34 13 -62 19 -85 19c-33 0 -58 -11 -77 -34s-34 -58 -47 -104z" />
    <glyph glyph-name="Ograve" unicode="&#xd2;" horiz-adv-x="850" 
d="M691 94c71 70 106 155 106 256s-35 187 -105 257c-71 70 -159 105 -266 105s-195 -35 -266 -105c-71 -71 -107 -156 -107 -257s35 -187 106 -257c70 -70 158 -105 265 -105s178 18 213 53c36 35 54 53 54 53zM274 194c-40 43 -60 95 -60 156c0 62 20 114 59 157
c39 42 90 63 151 63s112 -21 152 -64s60 -95 60 -156c0 -62 -20 -114 -59 -156c-39 -43 -90 -64 -151 -64s-102 11 -122 32s-30 32 -30 32zM363 755h116l-113 177l-131 -57z" />
    <glyph glyph-name="Oacute" unicode="&#xd3;" horiz-adv-x="850" 
d="M691 94c71 70 106 155 106 256s-35 187 -105 257c-71 70 -159 105 -266 105s-195 -35 -266 -105c-71 -71 -107 -156 -107 -257s35 -187 106 -257c70 -70 158 -105 265 -105s178 18 213 53c36 35 54 53 54 53zM274 194c-40 43 -60 95 -60 156c0 62 20 114 59 157
c39 42 90 63 151 63s112 -21 152 -64s60 -95 60 -156c0 -62 -20 -114 -59 -156c-39 -43 -90 -64 -151 -64s-102 11 -122 32s-30 32 -30 32zM371 755h116l128 120l-131 57z" />
    <glyph glyph-name="Ocircumflex" unicode="&#xd4;" horiz-adv-x="850" 
d="M691 94c71 70 106 155 106 256s-35 187 -105 257c-71 70 -159 105 -266 105s-195 -35 -266 -105c-71 -71 -107 -156 -107 -257s35 -187 106 -257c70 -70 158 -105 265 -105s178 18 213 53c36 35 54 53 54 53zM274 194c-40 43 -60 95 -60 156c0 62 20 114 59 157
c39 42 90 63 151 63s112 -21 152 -64s60 -95 60 -156c0 -62 -20 -114 -59 -156c-39 -43 -90 -64 -151 -64s-102 11 -122 32s-30 32 -30 32zM230 755h115l79 66l79 -66h117l-123 157h-144z" />
    <glyph glyph-name="Otilde" unicode="&#xd5;" horiz-adv-x="850" 
d="M691 94c71 70 106 155 106 256s-35 187 -105 257c-71 70 -159 105 -266 105s-195 -35 -266 -105c-71 -71 -107 -156 -107 -257s35 -187 106 -257c70 -70 158 -105 265 -105s178 18 213 53c36 35 54 53 54 53zM274 194c-40 43 -60 95 -60 156c0 62 20 114 59 157
c39 42 90 63 151 63s112 -21 152 -64s60 -95 60 -156c0 -62 -20 -114 -59 -156c-39 -43 -90 -64 -151 -64s-102 11 -122 32s-30 32 -30 32zM300 745c8 17 16 30 24 38c7 7 18 11 33 11c10 0 32 -6 66 -19c33 -13 61 -20 84 -20c33 0 58 12 77 35s34 57 47 103l-81 25
c-8 -17 -16 -30 -23 -37c-8 -8 -19 -12 -34 -12c-10 0 -32 7 -65 20c-34 13 -62 19 -85 19c-33 0 -58 -11 -77 -34s-34 -58 -47 -104z" />
    <glyph glyph-name="Odieresis" unicode="&#xd6;" horiz-adv-x="850" 
d="M691 94c71 70 106 155 106 256s-35 187 -105 257c-71 70 -159 105 -266 105s-195 -35 -266 -105c-71 -71 -107 -156 -107 -257s35 -187 106 -257c70 -70 158 -105 265 -105s178 18 213 53c36 35 54 53 54 53zM274 194c-40 43 -60 95 -60 156c0 62 20 114 59 157
c39 42 90 63 151 63s112 -21 152 -64s60 -95 60 -156c0 -62 -20 -114 -59 -156c-39 -43 -90 -64 -151 -64s-102 11 -122 32s-30 32 -30 32zM459 755h146v135h-146v-135zM245 755h146v135h-146v-135z" />
    <glyph glyph-name="multiply" unicode="&#xd7;" horiz-adv-x="640" 
d="M582 187l-164 164l164 164l-99 98l-164 -163l-163 163l-99 -98l164 -164l-164 -164l99 -98l163 163l164 -163z" />
    <glyph glyph-name="Oslash" unicode="&#xd8;" horiz-adv-x="850" 
d="M424 -12c107 0 196 35 267 106c71 70 106 155 106 256c0 95 -30 175 -90 241l98 114h-147l-39 -43c-57 33 -122 50 -193 50c-107 0 -195 -35 -266 -105c-71 -71 -107 -156 -107 -257c0 -94 30 -175 90 -242l-98 -113h147l39 43c57 -33 122 -50 193 -50zM245 227
c-23 37 -34 78 -34 123c0 63 20 116 61 159c40 43 91 64 152 64c35 0 68 -8 99 -24zM426 127c-35 0 -68 8 -99 24l278 322c23 -37 34 -78 34 -123c0 -63 -20 -115 -60 -158c-41 -43 -92 -65 -153 -65z" />
    <glyph glyph-name="Ugrave" unicode="&#xd9;" horiz-adv-x="756" 
d="M376 -11c96 0 171 27 226 80c54 53 81 132 81 236v395h-154v-401c0 -55 -13 -96 -39 -125c-27 -29 -64 -43 -112 -43s-85 15 -111 45c-27 29 -40 72 -40 128v396h-154v-400c0 -101 27 -178 80 -231s128 -80 223 -80zM331 750h116l-113 177l-131 -57z" />
    <glyph glyph-name="Uacute" unicode="&#xda;" horiz-adv-x="756" 
d="M376 -11c96 0 171 27 226 80c54 53 81 132 81 236v395h-154v-401c0 -55 -13 -96 -39 -125c-27 -29 -64 -43 -112 -43s-85 15 -111 45c-27 29 -40 72 -40 128v396h-154v-400c0 -101 27 -178 80 -231s128 -80 223 -80zM309 750h116l128 120l-131 57z" />
    <glyph glyph-name="Ucircumflex" unicode="&#xdb;" horiz-adv-x="756" 
d="M376 -11c96 0 171 27 226 80c54 53 81 132 81 236v395h-154v-401c0 -55 -13 -96 -39 -125c-27 -29 -64 -43 -112 -43s-85 15 -111 45c-27 29 -40 72 -40 128v396h-154v-400c0 -101 27 -178 80 -231s128 -80 223 -80zM183 755h115l79 66l79 -66h117l-123 157h-144z" />
    <glyph glyph-name="Udieresis" unicode="&#xdc;" horiz-adv-x="756" 
d="M376 -11c96 0 171 27 226 80c54 53 81 132 81 236v395h-154v-401c0 -55 -13 -96 -39 -125c-27 -29 -64 -43 -112 -43s-85 15 -111 45c-27 29 -40 72 -40 128v396h-154v-400c0 -101 27 -178 80 -231s128 -80 223 -80zM412 755h146v135h-146v-135zM198 755h146v135h-146
v-135z" />
    <glyph glyph-name="Yacute" unicode="&#xdd;" horiz-adv-x="716" 
d="M281 0h154v279l269 421h-175l-170 -281l-167 281h-180l269 -424v-276zM299 750h116l128 120l-131 57z" />
    <glyph glyph-name="Thorn" unicode="&#xde;" horiz-adv-x="673" 
d="M84 0h154v108h117c82 0 150 22 203 65s80 103 80 181v2c0 73 -24 131 -72 176c-48 44 -113 66 -196 66h-132v102h-154v-700zM238 245v214h119c39 0 70 -9 92 -27c22 -19 33 -45 33 -79v-2c0 -31 -11 -56 -33 -76s-52 -30 -89 -30h-122z" />
    <glyph glyph-name="germandbls" unicode="&#xdf;" horiz-adv-x="620" 
d="M299 -2h21c79 0 142 18 188 54c46 35 69 84 69 147c0 81 -44 141 -131 179c29 20 51 42 67 67s24 57 24 96c0 57 -20 104 -59 141c-40 37 -95 55 -164 55c-76 0 -136 -21 -180 -62s-66 -99 -66 -172v-503h151v509c0 30 8 54 25 73c16 18 37 27 63 27c25 0 44 -7 59 -21
c14 -15 21 -34 21 -59c0 -47 -29 -89 -88 -126v-100c38 -5 69 -16 93 -33c23 -17 35 -38 35 -64c0 -59 -43 -90 -128 -94v-114z" />
    <glyph glyph-name="agrave" unicode="&#xe0;" horiz-adv-x="592" 
d="M220 -10c67 0 121 23 162 68v-58h147v311c0 75 -19 132 -58 171c-40 40 -100 60 -181 60c-73 0 -143 -14 -208 -43l38 -116c53 19 102 29 148 29c77 0 115 -33 115 -98v-9c-43 15 -86 22 -131 22c-66 0 -118 -14 -157 -43s-59 -71 -59 -128c0 -52 18 -93 53 -122
s78 -44 131 -44zM266 95c-25 0 -45 6 -60 18c-15 11 -23 27 -23 47c0 25 9 44 28 57c18 13 44 19 77 19c36 0 68 -7 97 -20v-27c0 -27 -11 -50 -33 -67c-22 -18 -51 -27 -86 -27zM254 595h116l-113 177l-131 -57z" />
    <glyph glyph-name="aacute" unicode="&#xe1;" horiz-adv-x="592" 
d="M220 -10c67 0 121 23 162 68v-58h147v311c0 75 -19 132 -58 171c-40 40 -100 60 -181 60c-73 0 -143 -14 -208 -43l38 -116c53 19 102 29 148 29c77 0 115 -33 115 -98v-9c-43 15 -86 22 -131 22c-66 0 -118 -14 -157 -43s-59 -71 -59 -128c0 -52 18 -93 53 -122
s78 -44 131 -44zM266 95c-25 0 -45 6 -60 18c-15 11 -23 27 -23 47c0 25 9 44 28 57c18 13 44 19 77 19c36 0 68 -7 97 -20v-27c0 -27 -11 -50 -33 -67c-22 -18 -51 -27 -86 -27zM227 595h116l128 120l-131 57z" />
    <glyph glyph-name="acircumflex" unicode="&#xe2;" horiz-adv-x="592" 
d="M220 -10c67 0 121 23 162 68v-58h147v311c0 75 -19 132 -58 171c-40 40 -100 60 -181 60c-73 0 -143 -14 -208 -43l38 -116c53 19 102 29 148 29c77 0 115 -33 115 -98v-9c-43 15 -86 22 -131 22c-66 0 -118 -14 -157 -43s-59 -71 -59 -128c0 -52 18 -93 53 -122
s78 -44 131 -44zM266 95c-25 0 -45 6 -60 18c-15 11 -23 27 -23 47c0 25 9 44 28 57c18 13 44 19 77 19c36 0 68 -7 97 -20v-27c0 -27 -11 -50 -33 -67c-22 -18 -51 -27 -86 -27zM99 595h115l79 66l79 -66h117l-123 157h-144z" />
    <glyph glyph-name="atilde" unicode="&#xe3;" horiz-adv-x="592" 
d="M220 -10c67 0 121 23 162 68v-58h147v311c0 75 -19 132 -58 171c-40 40 -100 60 -181 60c-73 0 -143 -14 -208 -43l38 -116c53 19 102 29 148 29c77 0 115 -33 115 -98v-9c-43 15 -86 22 -131 22c-66 0 -118 -14 -157 -43s-59 -71 -59 -128c0 -52 18 -93 53 -122
s78 -44 131 -44zM266 95c-25 0 -45 6 -60 18c-15 11 -23 27 -23 47c0 25 9 44 28 57c18 13 44 19 77 19c36 0 68 -7 97 -20v-27c0 -27 -11 -50 -33 -67c-22 -18 -51 -27 -86 -27zM171 585c8 17 16 30 24 38c7 7 18 11 33 11c10 0 32 -6 66 -19c33 -13 61 -20 84 -20
c33 0 58 12 77 35s34 57 47 103l-81 25c-8 -17 -16 -30 -23 -37c-8 -8 -19 -12 -34 -12c-10 0 -32 7 -65 20c-34 13 -62 19 -85 19c-33 0 -58 -11 -77 -34s-34 -58 -47 -104z" />
    <glyph glyph-name="adieresis" unicode="&#xe4;" horiz-adv-x="592" 
d="M220 -10c67 0 121 23 162 68v-58h147v311c0 75 -19 132 -58 171c-40 40 -100 60 -181 60c-73 0 -143 -14 -208 -43l38 -116c53 19 102 29 148 29c77 0 115 -33 115 -98v-9c-43 15 -86 22 -131 22c-66 0 -118 -14 -157 -43s-59 -71 -59 -128c0 -52 18 -93 53 -122
s78 -44 131 -44zM266 95c-25 0 -45 6 -60 18c-15 11 -23 27 -23 47c0 25 9 44 28 57c18 13 44 19 77 19c36 0 68 -7 97 -20v-27c0 -27 -11 -50 -33 -67c-22 -18 -51 -27 -86 -27zM328 595h146v135h-146v-135zM114 595h146v135h-146v-135z" />
    <glyph glyph-name="aring" unicode="&#xe5;" horiz-adv-x="592" 
d="M220 -10c67 0 121 23 162 68v-58h147v311c0 75 -19 132 -58 171c-40 40 -100 60 -181 60c-73 0 -143 -14 -208 -43l38 -116c53 19 102 29 148 29c77 0 115 -33 115 -98v-9c-43 15 -86 22 -131 22c-66 0 -118 -14 -157 -43s-59 -71 -59 -128c0 -52 18 -93 53 -122
s78 -44 131 -44zM266 95c-25 0 -45 6 -60 18c-15 11 -23 27 -23 47c0 25 9 44 28 57c18 13 44 19 77 19c36 0 68 -7 97 -20v-27c0 -27 -11 -50 -33 -67c-22 -18 -51 -27 -86 -27zM379 628c24 23 36 50 36 81v2c0 31 -12 59 -36 82c-25 23 -53 34 -85 34s-60 -11 -84 -34
c-25 -23 -37 -51 -37 -82v-2c0 -31 12 -58 37 -81c24 -23 52 -35 84 -35s54 6 66 17c12 12 19 18 19 18zM251 666c-13 12 -19 26 -19 43v2c0 17 6 31 19 43c12 12 26 18 43 18s31 -6 44 -18c12 -12 18 -26 18 -43v-2c0 -17 -6 -31 -18 -43c-13 -12 -27 -18 -44 -18
s-28 3 -34 9z" />
    <glyph glyph-name="ae" unicode="&#xe6;" horiz-adv-x="951" 
d="M238 -10c74 0 147 26 218 79c53 -54 121 -81 204 -81c92 0 165 33 219 100l-87 77c-39 -37 -83 -55 -130 -55c-35 0 -63 9 -86 27s-38 44 -45 78h373c1 19 2 32 2 40c0 53 -9 100 -27 143s-47 78 -87 106s-88 42 -143 42c-71 0 -130 -24 -177 -72c-37 45 -98 68 -182 68
c-73 0 -143 -14 -208 -43l38 -116c53 19 102 29 148 29c77 0 115 -33 115 -98v-9c-43 15 -86 22 -131 22c-66 0 -118 -14 -157 -43s-59 -71 -59 -128c0 -52 19 -93 57 -122c37 -29 86 -44 145 -44zM529 310c6 35 19 63 40 84c20 20 45 30 76 30s57 -10 77 -31
c19 -21 31 -48 36 -83h-229zM266 97c-23 0 -43 6 -59 17s-24 27 -24 46c0 25 9 44 28 57c18 13 44 19 77 19c34 0 66 -6 96 -19c3 -23 9 -46 19 -69c-44 -34 -90 -51 -137 -51z" />
    <glyph glyph-name="ccedilla" unicode="&#xe7;" horiz-adv-x="571" 
d="M281 -173l65 162c74 5 139 37 194 97l-89 90c-40 -38 -81 -57 -123 -57c-41 0 -73 14 -98 43c-25 28 -38 63 -38 105v2c0 40 12 74 37 103s56 43 93 43c44 0 85 -20 122 -59l93 100c-53 60 -125 90 -214 90c-81 0 -148 -27 -201 -81c-53 -55 -80 -121 -80 -198v-2
c0 -62 18 -117 54 -166c35 -49 82 -82 140 -99l-82 -120z" />
    <glyph glyph-name="egrave" unicode="&#xe8;" horiz-adv-x="613" 
d="M322 -12c92 0 165 33 219 100l-87 77c-39 -37 -83 -55 -130 -55c-35 0 -63 9 -86 27s-38 44 -45 78h373c1 19 2 32 2 40c0 82 -22 151 -67 207s-109 84 -194 84c-77 0 -140 -27 -190 -81s-75 -120 -75 -198c0 -83 26 -150 79 -201c53 -52 120 -78 201 -78zM191 310
c6 35 19 63 40 84c20 20 45 30 76 30s57 -10 77 -31c19 -21 31 -48 36 -83h-229zM250 595h116l-113 177l-131 -57z" />
    <glyph glyph-name="eacute" unicode="&#xe9;" horiz-adv-x="613" 
d="M322 -12c92 0 165 33 219 100l-87 77c-39 -37 -83 -55 -130 -55c-35 0 -63 9 -86 27s-38 44 -45 78h373c1 19 2 32 2 40c0 82 -22 151 -67 207s-109 84 -194 84c-77 0 -140 -27 -190 -81s-75 -120 -75 -198c0 -83 26 -150 79 -201c53 -52 120 -78 201 -78zM191 310
c6 35 19 63 40 84c20 20 45 30 76 30s57 -10 77 -31c19 -21 31 -48 36 -83h-229zM246 595h116l128 120l-131 57z" />
    <glyph glyph-name="ecircumflex" unicode="&#xea;" horiz-adv-x="613" 
d="M322 -12c92 0 165 33 219 100l-87 77c-39 -37 -83 -55 -130 -55c-35 0 -63 9 -86 27s-38 44 -45 78h373c1 19 2 32 2 40c0 82 -22 151 -67 207s-109 84 -194 84c-77 0 -140 -27 -190 -81s-75 -120 -75 -198c0 -83 26 -150 79 -201c53 -52 120 -78 201 -78zM191 310
c6 35 19 63 40 84c20 20 45 30 76 30s57 -10 77 -31c19 -21 31 -48 36 -83h-229zM111 595h115l79 66l79 -66h117l-123 157h-144z" />
    <glyph glyph-name="edieresis" unicode="&#xeb;" horiz-adv-x="613" 
d="M322 -12c92 0 165 33 219 100l-87 77c-39 -37 -83 -55 -130 -55c-35 0 -63 9 -86 27s-38 44 -45 78h373c1 19 2 32 2 40c0 82 -22 151 -67 207s-109 84 -194 84c-77 0 -140 -27 -190 -81s-75 -120 -75 -198c0 -83 26 -150 79 -201c53 -52 120 -78 201 -78zM191 310
c6 35 19 63 40 84c20 20 45 30 76 30s57 -10 77 -31c19 -21 31 -48 36 -83h-229zM340 595h146v135h-146v-135zM126 595h146v135h-146v-135z" />
    <glyph glyph-name="igrave" unicode="&#xec;" horiz-adv-x="302" 
d="M75 0h152v536h-152v-536zM101 595h116l-113 177l-131 -57z" />
    <glyph glyph-name="iacute" unicode="&#xed;" horiz-adv-x="302" 
d="M75 0h152v536h-152v-536zM85 595h116l128 120l-131 57z" />
    <glyph glyph-name="icircumflex" unicode="&#xee;" horiz-adv-x="302" 
d="M75 0h152v536h-152v-536zM-44 595h115l79 66l79 -66h117l-123 157h-144z" />
    <glyph glyph-name="idieresis" unicode="&#xef;" horiz-adv-x="302" 
d="M75 0h152v536h-152v-536zM185 595h146v135h-146v-135zM-29 595h146v135h-146v-135z" />
    <glyph glyph-name="eth" unicode="&#xf0;" horiz-adv-x="648" 
d="M319 -12c87 0 157 26 208 79s77 118 77 195c0 43 -7 84 -20 122c-14 37 -37 78 -68 123l-81 115l102 41l-55 75l-100 -41l-23 33h-171l64 -86l-115 -46l56 -75l114 47l87 -116c-40 21 -81 32 -123 32c-67 0 -122 -22 -165 -65s-64 -100 -64 -169c0 -75 26 -137 79 -188
s119 -76 198 -76zM324 116c-39 0 -71 13 -96 38s-38 56 -38 93c0 39 12 70 37 95c24 24 56 36 96 36c39 0 71 -12 96 -37s37 -55 37 -92c0 -39 -12 -70 -36 -95s-56 -38 -96 -38z" />
    <glyph glyph-name="ntilde" unicode="&#xf1;" horiz-adv-x="623" 
d="M68 0h152v299c0 35 9 62 26 81s40 28 69 28s52 -9 68 -28s24 -46 24 -81v-299h152v347c0 62 -16 111 -48 146s-77 53 -134 53c-60 0 -112 -29 -157 -86v76h-152v-536zM191 585c8 17 16 30 24 38c7 7 18 11 33 11c10 0 32 -6 66 -19c33 -13 61 -20 84 -20
c33 0 58 12 77 35s34 57 47 103l-81 25c-8 -17 -16 -30 -23 -37c-8 -8 -19 -12 -34 -12c-10 0 -32 7 -65 20c-34 13 -62 19 -85 19c-33 0 -58 -11 -77 -34s-34 -58 -47 -104z" />
    <glyph glyph-name="ograve" unicode="&#xf2;" horiz-adv-x="664" 
d="M539 69c55 54 83 120 83 198c0 79 -27 145 -82 199c-55 53 -124 80 -207 80s-152 -27 -207 -81c-56 -54 -84 -120 -84 -198c0 -79 28 -145 83 -198c55 -54 123 -81 206 -81s138 14 166 41s42 40 42 40zM333 119c-41 0 -75 15 -101 44c-27 29 -40 63 -40 104
c0 42 13 77 38 106c25 28 59 42 101 42c41 0 75 -14 102 -43c26 -29 39 -64 39 -105c0 -42 -13 -77 -38 -105c-25 -29 -59 -43 -101 -43zM274 595h116l-113 177l-131 -57z" />
    <glyph glyph-name="oacute" unicode="&#xf3;" horiz-adv-x="664" 
d="M539 69c55 54 83 120 83 198c0 79 -27 145 -82 199c-55 53 -124 80 -207 80s-152 -27 -207 -81c-56 -54 -84 -120 -84 -198c0 -79 28 -145 83 -198c55 -54 123 -81 206 -81s138 14 166 41s42 40 42 40zM333 119c-41 0 -75 15 -101 44c-27 29 -40 63 -40 104
c0 42 13 77 38 106c25 28 59 42 101 42c41 0 75 -14 102 -43c26 -29 39 -64 39 -105c0 -42 -13 -77 -38 -105c-25 -29 -59 -43 -101 -43zM274 595h116l128 120l-131 57z" />
    <glyph glyph-name="ocircumflex" unicode="&#xf4;" horiz-adv-x="664" 
d="M539 69c55 54 83 120 83 198c0 79 -27 145 -82 199c-55 53 -124 80 -207 80s-152 -27 -207 -81c-56 -54 -84 -120 -84 -198c0 -79 28 -145 83 -198c55 -54 123 -81 206 -81s138 14 166 41s42 40 42 40zM333 119c-41 0 -75 15 -101 44c-27 29 -40 63 -40 104
c0 42 13 77 38 106c25 28 59 42 101 42c41 0 75 -14 102 -43c26 -29 39 -64 39 -105c0 -42 -13 -77 -38 -105c-25 -29 -59 -43 -101 -43zM137 595h115l79 66l79 -66h117l-123 157h-144z" />
    <glyph glyph-name="otilde" unicode="&#xf5;" horiz-adv-x="664" 
d="M539 69c55 54 83 120 83 198c0 79 -27 145 -82 199c-55 53 -124 80 -207 80s-152 -27 -207 -81c-56 -54 -84 -120 -84 -198c0 -79 28 -145 83 -198c55 -54 123 -81 206 -81s138 14 166 41s42 40 42 40zM333 119c-41 0 -75 15 -101 44c-27 29 -40 63 -40 104
c0 42 13 77 38 106c25 28 59 42 101 42c41 0 75 -14 102 -43c26 -29 39 -64 39 -105c0 -42 -13 -77 -38 -105c-25 -29 -59 -43 -101 -43zM207 585c8 17 16 30 24 38c7 7 18 11 33 11c10 0 32 -6 66 -19c33 -13 61 -20 84 -20c33 0 58 12 77 35s34 57 47 103l-81 25
c-8 -17 -16 -30 -23 -37c-8 -8 -19 -12 -34 -12c-10 0 -32 7 -65 20c-34 13 -62 19 -85 19c-33 0 -58 -11 -77 -34s-34 -58 -47 -104z" />
    <glyph glyph-name="odieresis" unicode="&#xf6;" horiz-adv-x="664" 
d="M539 69c55 54 83 120 83 198c0 79 -27 145 -82 199c-55 53 -124 80 -207 80s-152 -27 -207 -81c-56 -54 -84 -120 -84 -198c0 -79 28 -145 83 -198c55 -54 123 -81 206 -81s138 14 166 41s42 40 42 40zM333 119c-41 0 -75 15 -101 44c-27 29 -40 63 -40 104
c0 42 13 77 38 106c25 28 59 42 101 42c41 0 75 -14 102 -43c26 -29 39 -64 39 -105c0 -42 -13 -77 -38 -105c-25 -29 -59 -43 -101 -43zM366 595h146v135h-146v-135zM152 595h146v135h-146v-135z" />
    <glyph glyph-name="divide" unicode="&#xf7;" horiz-adv-x="640" 
d="M79 286h481v137h-481v-137zM242 500h149v151h-149v-151zM242 58h149v151h-149v-151z" />
    <glyph glyph-name="oslash" unicode="&#xf8;" horiz-adv-x="664" 
d="M331 -12c83 0 152 27 208 81c55 54 83 120 83 198c0 71 -22 131 -66 181c28 32 55 63 81 93h-133l-28 -30c-43 23 -91 35 -143 35c-83 0 -152 -27 -207 -81c-56 -54 -84 -120 -84 -198c0 -69 22 -129 65 -180l-80 -92h133l27 28c45 -23 93 -35 144 -35zM204 197
c-11 23 -16 46 -16 70c0 43 13 80 39 109s61 43 104 43c21 0 40 -4 57 -12zM333 115c-20 0 -39 4 -57 11l184 211c11 -23 16 -46 16 -70c0 -43 -13 -79 -39 -108s-61 -44 -104 -44z" />
    <glyph glyph-name="ugrave" unicode="&#xf9;" horiz-adv-x="623" 
d="M246 -10c60 0 112 29 157 86v-76h152v536h-152v-299c0 -35 -8 -62 -25 -81s-41 -28 -70 -28s-52 9 -68 28s-24 46 -24 81v299h-152v-347c0 -62 16 -111 48 -146s77 -53 134 -53zM269 595h116l-113 177l-131 -57z" />
    <glyph glyph-name="uacute" unicode="&#xfa;" horiz-adv-x="623" 
d="M246 -10c60 0 112 29 157 86v-76h152v536h-152v-299c0 -35 -8 -62 -25 -81s-41 -28 -70 -28s-52 9 -68 28s-24 46 -24 81v299h-152v-347c0 -62 16 -111 48 -146s77 -53 134 -53zM237 595h116l128 120l-131 57z" />
    <glyph glyph-name="ucircumflex" unicode="&#xfb;" horiz-adv-x="623" 
d="M246 -10c60 0 112 29 157 86v-76h152v536h-152v-299c0 -35 -8 -62 -25 -81s-41 -28 -70 -28s-52 9 -68 28s-24 46 -24 81v299h-152v-347c0 -62 16 -111 48 -146s77 -53 134 -53zM116 595h115l79 66l79 -66h117l-123 157h-144z" />
    <glyph glyph-name="udieresis" unicode="&#xfc;" horiz-adv-x="623" 
d="M246 -10c60 0 112 29 157 86v-76h152v536h-152v-299c0 -35 -8 -62 -25 -81s-41 -28 -70 -28s-52 9 -68 28s-24 46 -24 81v299h-152v-347c0 -62 16 -111 48 -146s77 -53 134 -53zM345 595h146v135h-146v-135zM131 595h146v135h-146v-135z" />
    <glyph glyph-name="yacute" unicode="&#xfd;" horiz-adv-x="600" 
d="M196 -163c45 0 80 11 106 34c26 22 49 61 70 116l206 549h-158l-117 -365l-122 365h-161l210 -538c-11 -23 -29 -35 -53 -35c-20 0 -42 7 -65 21l-51 -110c42 -25 87 -37 135 -37zM229 595h116l128 120l-131 57z" />
    <glyph glyph-name="thorn" unicode="&#xfe;" horiz-adv-x="675" 
d="M68 -160h152v230c45 -53 100 -80 167 -80s125 25 173 75c47 49 71 117 71 202v2c0 85 -24 153 -72 203c-48 49 -105 74 -172 74c-69 0 -124 -29 -167 -87v271h-152v-890zM256 161c-25 27 -38 63 -38 106v2c0 43 13 79 38 107c25 27 55 41 92 41s68 -14 93 -41
c25 -28 38 -64 38 -107v-2c0 -44 -13 -80 -38 -107s-56 -41 -93 -41s-61 7 -74 21z" />
    <glyph glyph-name="ydieresis" unicode="&#xff;" horiz-adv-x="600" 
d="M196 -163c45 0 80 11 106 34c26 22 49 61 70 116l206 549h-158l-117 -365l-122 365h-161l210 -538c-11 -23 -29 -35 -53 -35c-20 0 -42 7 -65 21l-51 -110c42 -25 87 -37 135 -37zM334 595h146v135h-146v-135zM120 595h146v135h-146v-135z" />
    <glyph glyph-name="Amacron" unicode="&#x100;" horiz-adv-x="40" 
 />
    <glyph glyph-name="dotlessi" unicode="&#x131;" horiz-adv-x="302" 
d="M75 0h152v536h-152v-536z" />
    <glyph glyph-name="Lslash" unicode="&#x141;" horiz-adv-x="649" 
d="M114 0h503v140h-351v168l192 57v143l-192 -57v249h-152v-295l-75 -22v-143l75 22v-262z" />
    <glyph glyph-name="lslash" unicode="&#x142;" horiz-adv-x="362" 
d="M106 0h150v324l76 23v143l-76 -23v263h-150v-307l-76 -23v-143l76 23v-280z" />
    <glyph glyph-name="OE" unicode="&#x152;" horiz-adv-x="1075" 
d="M425 0h597v137h-355v147h305v137h-305v142h350v137h-592c-109 0 -198 -33 -267 -100c-70 -67 -105 -150 -105 -250c0 -101 35 -184 104 -250c69 -67 159 -100 268 -100zM425 139c-63 0 -113 20 -152 59s-59 90 -59 152c0 63 19 114 58 153s90 58 153 58h89v-422h-89z" />
    <glyph glyph-name="oe" unicode="&#x153;" horiz-adv-x="1033" 
d="M322 -12c84 0 153 30 206 91c54 -61 125 -91 214 -91c92 0 165 33 219 100l-87 77c-39 -37 -83 -55 -130 -55c-35 0 -63 9 -86 27s-38 44 -45 78h373c1 19 2 32 2 40c0 82 -22 151 -67 207s-109 84 -194 84c-81 0 -146 -30 -197 -89c-52 59 -119 89 -202 89
c-79 0 -147 -27 -202 -81c-56 -55 -84 -121 -84 -198s28 -143 83 -197c55 -55 120 -82 197 -82zM611 310c6 35 19 63 40 84c20 20 45 30 76 30s57 -10 77 -31c19 -21 31 -48 36 -83h-229zM328 119c-39 0 -72 15 -97 44c-26 29 -39 63 -39 104s12 76 37 105
c24 29 56 43 97 43c39 0 72 -14 98 -43c25 -29 38 -64 38 -105c0 -42 -12 -77 -36 -105c-25 -29 -57 -43 -98 -43z" />
    <glyph glyph-name="Scaron" unicode="&#x160;" horiz-adv-x="640" 
d="M333 -10c77 0 140 19 187 58c47 38 70 91 70 159c0 59 -18 104 -54 135s-92 57 -168 77c-62 16 -103 30 -122 41s-29 28 -29 51c0 19 8 34 24 46c15 11 37 17 66 17c55 0 116 -23 182 -69l80 116c-74 59 -161 89 -260 89c-72 0 -131 -19 -176 -58
c-46 -39 -69 -90 -69 -153c0 -34 5 -63 16 -87c10 -25 26 -45 49 -61c22 -16 45 -29 70 -38c25 -10 57 -20 97 -30c57 -15 94 -28 113 -40c19 -13 28 -29 28 -49c0 -21 -9 -38 -27 -50s-43 -18 -74 -18c-71 0 -140 28 -209 85l-91 -109c83 -75 182 -112 297 -112zM245 755
h144l123 157h-115l-79 -66l-79 66h-117z" />
    <glyph glyph-name="scaron" unicode="&#x161;" horiz-adv-x="502" 
d="M256 -10c61 0 111 15 149 44c37 29 56 72 56 129c0 19 -3 37 -10 53s-15 29 -24 40c-10 10 -23 20 -39 29s-30 17 -43 22s-28 11 -46 17c-4 1 -10 3 -17 6c-61 21 -92 40 -92 58c0 26 19 39 56 39c40 0 88 -17 145 -50l58 105c-61 41 -128 62 -200 62
c-56 0 -103 -15 -140 -45c-37 -31 -56 -72 -56 -125c0 -25 5 -47 14 -66s22 -35 39 -47c17 -13 34 -22 50 -29c15 -7 34 -14 57 -21c5 -1 11 -3 19 -5c8 -3 14 -5 19 -6s10 -3 17 -5c7 -3 12 -5 16 -6c3 -2 8 -4 13 -6c5 -3 9 -5 12 -7l8 -8s5 -6 6 -9s1 -7 1 -10
c0 -28 -21 -42 -64 -42c-54 0 -110 21 -169 64l-65 -100c69 -54 145 -81 230 -81zM183 595h144l123 157h-115l-79 -66l-79 66h-117z" />
    <glyph glyph-name="Ydieresis" unicode="&#x178;" horiz-adv-x="716" 
d="M281 0h154v279l269 421h-175l-170 -281l-167 281h-180l269 -424v-276zM392 755h146v135h-146v-135zM178 755h146v135h-146v-135z" />
    <glyph glyph-name="Zcaron" unicode="&#x17d;" horiz-adv-x="708" 
d="M63 0h583v135h-385l385 448v117h-571v-135h373l-385 -448v-117zM285 755h144l123 157h-115l-79 -66l-79 66h-117z" />
    <glyph glyph-name="zcaron" unicode="&#x17e;" horiz-adv-x="563" 
d="M50 0h466v123h-278l278 306v107h-457v-123h268l-277 -306v-107zM217 595h144l123 157h-115l-79 -66l-79 66h-117z" />
    <glyph glyph-name="SmallLetterBwithstro" unicode="&#x180;" horiz-adv-x="40" 
 />
    <glyph glyph-name="florin" unicode="&#x192;" horiz-adv-x="536" 
d="M100 -5c58 0 102 13 133 38s51 66 62 124l33 187h137v125h-115l7 40c8 45 33 68 75 68c19 0 41 -3 68 -10v126c-25 8 -58 12 -99 12c-57 0 -101 -13 -130 -40s-49 -68 -59 -122l-14 -74h-89v-125h67l-28 -163c-4 -22 -11 -38 -22 -47s-27 -14 -48 -14c-11 0 -24 1 -37 3
v-123c15 -3 35 -5 59 -5z" />
    <glyph glyph-name="circumflex" unicode="&#x2c6;" 
d="M55 595h115l79 66l79 -66h117l-123 157h-144z" />
    <glyph glyph-name="caron" unicode="&#x2c7;" 
d="M178 595h144l123 157h-115l-79 -66l-79 66h-117z" />
    <glyph glyph-name="breve" unicode="&#x2d8;" 
d="M381 635c33 28 52 67 57 117h-102c-13 -40 -42 -60 -86 -60s-73 20 -86 60h-102c5 -50 24 -89 58 -117c33 -28 77 -42 130 -42s88 7 105 21s26 21 26 21z" />
    <glyph glyph-name="dotaccent" unicode="&#x2d9;" 
d="M175 595h150v135h-150v-135z" />
    <glyph glyph-name="ring" unicode="&#x2da;" 
d="M335 628c24 23 36 50 36 81v2c0 31 -12 59 -36 82c-25 23 -53 34 -85 34s-60 -11 -84 -34c-25 -23 -37 -51 -37 -82v-2c0 -31 12 -58 37 -81c24 -23 52 -35 84 -35s54 6 66 17c12 12 19 18 19 18zM207 666c-13 12 -19 26 -19 43v2c0 17 6 31 19 43c12 12 26 18 43 18
s31 -6 44 -18c12 -12 18 -26 18 -43v-2c0 -17 -6 -31 -18 -43c-13 -12 -27 -18 -44 -18s-28 3 -34 9z" />
    <glyph glyph-name="ogonek" unicode="&#x2db;" 
d="M371 -164v67c-57 3 -86 26 -86 68c0 12 2 25 6 39h-104c-11 -23 -16 -44 -16 -65c0 -40 18 -69 53 -88s84 -26 147 -21z" />
    <glyph glyph-name="tilde" unicode="&#x2dc;" 
d="M125 585c8 17 16 30 24 38c7 7 18 11 33 11c10 0 32 -6 66 -19c33 -13 61 -20 84 -20c33 0 58 12 77 35s34 57 47 103l-81 25c-8 -17 -16 -30 -23 -37c-8 -8 -19 -12 -34 -12c-10 0 -32 7 -65 20c-34 13 -62 19 -85 19c-33 0 -58 -11 -77 -34s-34 -58 -47 -104z" />
    <glyph glyph-name="hungarumlaut" unicode="&#x2dd;" 
d="M231 595h111l130 120l-128 57zM36 595h111l128 120l-128 57z" />
    <glyph glyph-name="GREEKCapitalLetterOM" unicode="&#x3a9;" horiz-adv-x="784" 
d="M722 0v126h-174v27c56 13 99 44 129 93c30 48 45 102 45 162c0 93 -31 167 -94 222s-140 82 -233 82c-94 0 -173 -28 -237 -83c-64 -56 -96 -130 -96 -223c0 -59 15 -112 46 -159c30 -47 73 -79 128 -94v-27h-174v-126h289v208c-43 9 -76 30 -98 63
c-23 32 -34 71 -34 118c0 54 16 100 48 137s75 55 128 55c52 0 94 -18 125 -54c31 -37 47 -81 47 -134c0 -47 -11 -87 -34 -120c-23 -34 -56 -56 -100 -65v-208h289z" />
    <glyph glyph-name="pi" unicode="&#x3c0;" 
d="M0 0h500v700h-500v-700zM81 49l169 255l170 -255h-339zM49 96v508l171 -254zM450 96l-171 254l171 254v-508zM250 395l-169 255h339z" />
    <glyph glyph-name="CYRILLICCapitalLette" unicode="&#x401;" horiz-adv-x="670" 
d="M84 0h533v137h-380v147h330v137h-330v142h375v137h-528v-700zM379 755h146v135h-146v-135zM165 755h146v135h-146v-135z" />
    <glyph glyph-name="CYRILLICCapitalLette" unicode="&#x402;" horiz-adv-x="868" 
d="M457 6c29 -11 65 -17 108 -17c73 0 131 20 175 61c43 41 65 100 65 179c0 72 -22 129 -66 170c-45 41 -103 61 -174 61c-68 0 -131 -19 -190 -57v161h250v136h-593v-136h190v-564h153v255c41 37 91 56 151 56c80 0 120 -28 120 -85c0 -58 -39 -87 -118 -87
c-12 0 -27 1 -44 4z" />
    <glyph glyph-name="CYRILLICCapitalLette" unicode="&#x403;" horiz-adv-x="598" 
d="M238 561h335v139h-489v-700h154v561zM217 755h116l128 120l-131 57z" />
    <glyph glyph-name="CYRILLICCapitalLette" unicode="&#x404;" horiz-adv-x="733" 
d="M505 417h-286c13 47 37 85 73 114s78 43 125 43c67 0 128 -25 183 -74l85 106c-75 71 -164 106 -267 106c-106 0 -193 -35 -262 -105s-103 -156 -103 -257c0 -102 34 -188 103 -257c68 -70 153 -105 256 -105c65 0 121 10 167 29s88 49 125 89l-95 103
c-31 -28 -61 -49 -90 -62c-29 -14 -63 -21 -102 -21c-49 0 -92 15 -127 46c-36 30 -60 69 -72 117h287v128z" />
    <glyph glyph-name="CYRILLICCapitalLette" unicode="&#x405;" horiz-adv-x="640" 
d="M333 -10c77 0 140 19 187 58c47 38 70 91 70 159c0 59 -18 104 -54 135s-92 57 -168 77c-62 16 -103 30 -122 41s-29 28 -29 51c0 19 8 34 24 46c15 11 37 17 66 17c55 0 116 -23 182 -69l80 116c-74 59 -161 89 -260 89c-72 0 -131 -19 -176 -58
c-46 -39 -69 -90 -69 -153c0 -34 5 -63 16 -87c10 -25 26 -45 49 -61c22 -16 45 -29 70 -38c25 -10 57 -20 97 -30c57 -15 94 -28 113 -40c19 -13 28 -29 28 -49c0 -21 -9 -38 -27 -50s-43 -18 -74 -18c-71 0 -140 28 -209 85l-91 -109c83 -75 182 -112 297 -112z" />
    <glyph glyph-name="CYRILLICCapitalLette" unicode="&#x406;" horiz-adv-x="336" 
d="M91 0h154v700h-154v-700z" />
    <glyph glyph-name="CYRILLICCapitalLette" unicode="&#x407;" horiz-adv-x="336" 
d="M91 0h154v700h-154v-700zM202 755h146v135h-146v-135zM-12 755h146v135h-146v-135z" />
    <glyph glyph-name="CYRILLICCapitalLette" unicode="&#x408;" horiz-adv-x="564" 
d="M243 -10c78 0 139 22 182 65c44 44 66 106 66 187v458h-158v-451c0 -77 -31 -116 -94 -116c-43 0 -85 23 -128 70l-97 -108c59 -70 135 -105 229 -105z" />
    <glyph glyph-name="CYRILLICCapitalLette" unicode="&#x409;" horiz-adv-x="1116" 
d="M523 0h293c82 0 147 21 195 64c47 42 71 99 71 171c0 69 -23 125 -68 166s-108 61 -188 61h-149v238h-500v-145c0 -92 -3 -167 -8 -225c-5 -59 -14 -103 -26 -132c-13 -29 -26 -49 -40 -58c-15 -10 -33 -15 -56 -15c-7 0 -15 1 -24 2l-10 -127c23 -6 50 -9 81 -9
c55 0 99 15 131 46c32 30 56 83 72 158s24 180 24 313v53h202v-561zM813 330c77 0 116 -31 116 -93c0 -65 -38 -98 -115 -98h-137v191h136z" />
    <glyph glyph-name="CYRILLICCapitalLette" unicode="&#x40a;" horiz-adv-x="1115" 
d="M820 0c82 0 146 19 192 58s69 93 69 164c0 67 -21 120 -64 159s-104 58 -182 58h-159v261h-154v-261h-284v261h-154v-700h154v311h284v-311h298zM819 311c72 0 108 -28 108 -83c0 -59 -36 -89 -107 -89h-144v172h143z" />
    <glyph glyph-name="CYRILLICCapitalLette" unicode="&#x40b;" horiz-adv-x="868" 
d="M375 255c41 37 93 56 158 56c39 0 69 -12 89 -35c20 -24 30 -58 30 -102v-174h153v239c0 70 -22 124 -66 163c-45 39 -103 58 -174 58c-68 0 -131 -19 -190 -57v161h250v136h-593v-136h190v-564h153v255z" />
    <glyph glyph-name="CYRILLICCapitalLette" unicode="&#x40c;" horiz-adv-x="730" 
d="M84 0h154v214l81 84l217 -298h185l-298 403l285 297h-186l-284 -306v306h-154v-700zM303 755h116l128 120l-131 57z" />
    <glyph glyph-name="CYRILLICCapitalLette" unicode="&#x40e;" horiz-adv-x="734" 
d="M380 330l-190 370h-172l280 -524c-24 -37 -53 -56 -88 -56c-30 0 -58 8 -83 23l-60 -113c48 -27 98 -41 151 -41c50 0 93 13 130 40c36 27 69 70 99 130l269 541h-167zM492 793c29 27 47 64 54 112l-89 16c-14 -45 -40 -67 -79 -67s-65 22 -79 67l-89 -16
c7 -48 25 -85 55 -112c29 -27 67 -40 113 -40s76 7 91 20s23 20 23 20z" />
    <glyph glyph-name="CYRILLICCapitalLette" unicode="&#x40f;" horiz-adv-x="752" 
d="M84 0h217v-146h149v146h218v700h-153v-560h-278v560h-153v-700z" />
    <glyph glyph-name="CYRILLICCapitalLette" unicode="&#x410;" horiz-adv-x="790" 
d="M24 0h157l64 157h296l64 -157h161l-300 705h-142zM300 293l93 227l93 -227h-186z" />
    <glyph glyph-name="CYRILLICCapitalLette" unicode="&#x411;" horiz-adv-x="712" 
d="M238 561h383v139h-537v-700h324c82 0 146 19 192 58s69 93 69 164c0 67 -21 120 -64 159s-104 58 -182 58h-185v122zM407 311c72 0 108 -28 108 -83c0 -59 -36 -89 -107 -89h-170v172h169z" />
    <glyph glyph-name="CYRILLICCapitalLette" unicode="&#x412;" horiz-adv-x="722" 
d="M84 0h333c81 0 145 16 192 49s70 80 70 143c0 45 -11 82 -33 109s-55 48 -98 65c61 35 92 85 92 151c0 49 -16 89 -48 121c-41 41 -102 62 -183 62h-325v-700zM234 417v148h152c33 0 58 -6 75 -18c17 -13 26 -31 26 -54c0 -51 -37 -76 -111 -76h-142zM234 135v154h178
c76 0 114 -25 114 -76c0 -52 -36 -78 -109 -78h-183z" />
    <glyph glyph-name="CYRILLICCapitalLette" unicode="&#x413;" horiz-adv-x="598" 
d="M238 561h335v139h-489v-700h154v561z" />
    <glyph glyph-name="CYRILLICCapitalLette" unicode="&#x414;" horiz-adv-x="770" 
d="M10 -146h139l10 146h438v-146h129l20 285h-84v561h-509v-82c0 -115 -6 -207 -18 -278s-32 -138 -59 -201h-66v-285zM508 561v-422h-270c42 102 63 219 63 351v71h207z" />
    <glyph glyph-name="CYRILLICCapitalLette" unicode="&#x415;" horiz-adv-x="670" 
d="M84 0h533v137h-380v147h330v137h-330v142h375v137h-528v-700z" />
    <glyph glyph-name="CYRILLICCapitalLette" unicode="&#x416;" horiz-adv-x="1119" 
d="M636 0v186l92 100l198 -286h184l-277 397l267 303h-183l-281 -327v327h-153v-327l-281 327h-183l267 -303l-277 -397h184l197 286l93 -100v-186h153z" />
    <glyph glyph-name="CYRILLICCapitalLette" unicode="&#x417;" horiz-adv-x="654" 
d="M333 712c-115 0 -209 -38 -282 -115l81 -98c50 51 113 77 189 77c34 0 61 -7 82 -21s31 -33 31 -57c0 -54 -42 -81 -125 -81h-79v-128h81c43 0 77 -7 102 -20s37 -34 37 -62c0 -26 -11 -46 -33 -61c-23 -15 -51 -23 -85 -23c-88 0 -162 30 -223 89l-82 -107
c39 -39 83 -69 132 -88c48 -19 108 -29 179 -29c81 0 145 20 194 59c48 39 72 90 72 151c0 82 -44 137 -131 165c75 33 113 86 113 161c0 55 -23 100 -70 135s-108 53 -183 53z" />
    <glyph glyph-name="CYRILLICCapitalLette" unicode="&#x418;" horiz-adv-x="771" 
d="M687 700h-143l-308 -459v459h-152v-700h145l306 459v-459h152v700z" />
    <glyph glyph-name="CYRILLICCapitalLette" unicode="&#x419;" horiz-adv-x="771" 
d="M687 700h-143l-308 -459v459h-152v-700h145l306 459v-459h152v700zM463 756c21 19 34 46 39 80l-64 11c-10 -31 -29 -47 -56 -47c-28 0 -47 16 -57 47l-63 -11c5 -34 18 -61 39 -80s48 -29 81 -29s54 5 65 15c11 9 16 14 16 14z" />
    <glyph glyph-name="CYRILLICCapitalLette" unicode="&#x41a;" horiz-adv-x="730" 
d="M84 0h154v214l81 84l217 -298h185l-298 403l285 297h-186l-284 -306v306h-154v-700z" />
    <glyph glyph-name="CYRILLICCapitalLette" unicode="&#x41b;" horiz-adv-x="761" 
d="M177 700v-145c0 -92 -3 -167 -8 -225c-5 -59 -14 -103 -26 -132c-13 -29 -26 -49 -40 -58c-15 -10 -33 -15 -56 -15c-7 0 -15 1 -24 2l-10 -127c23 -6 50 -9 81 -9c56 0 100 14 131 43s55 81 72 156c16 75 24 181 24 318v53h202v-561h154v700h-500z" />
    <glyph glyph-name="CYRILLICCapitalLette" unicode="&#x41c;" horiz-adv-x="868" 
d="M84 0h151v454l195 -296h4l197 299v-457h153v700h-166l-184 -296l-184 296h-166v-700z" />
    <glyph glyph-name="CYRILLICCapitalLette" unicode="&#x41d;" horiz-adv-x="760" 
d="M84 0h154v281h284v-281h154v700h-154v-277h-284v277h-154v-700z" />
    <glyph glyph-name="CYRILLICCapitalLette" unicode="&#x41e;" horiz-adv-x="850" 
d="M691 94c71 70 106 155 106 256s-35 187 -105 257c-71 70 -159 105 -266 105s-195 -35 -266 -105c-71 -71 -107 -156 -107 -257s35 -187 106 -257c70 -70 158 -105 265 -105s178 18 213 53c36 35 54 53 54 53zM274 194c-40 43 -60 95 -60 156c0 62 20 114 59 157
c39 42 90 63 151 63s112 -21 152 -64s60 -95 60 -156c0 -62 -20 -114 -59 -156c-39 -43 -90 -64 -151 -64s-102 11 -122 32s-30 32 -30 32z" />
    <glyph glyph-name="CYRILLICCapitalLette" unicode="&#x41f;" horiz-adv-x="752" 
d="M84 0h154v561h276v-561h154v700h-584v-700z" />
    <glyph glyph-name="CYRILLICCapitalLette" unicode="&#x420;" horiz-adv-x="668" 
d="M84 0h154v210h117c82 0 150 22 203 65s80 103 80 181c0 73 -24 132 -72 177s-113 67 -196 67h-286v-700zM238 347v214h119c39 0 70 -9 92 -27c22 -19 33 -45 33 -79c0 -32 -11 -58 -32 -78c-22 -20 -52 -30 -90 -30h-122z" />
    <glyph glyph-name="CYRILLICCapitalLette" unicode="&#x421;" horiz-adv-x="738" 
d="M412 -12c65 0 119 10 164 29c44 19 85 49 123 90l-98 105c-31 -28 -60 -49 -87 -62s-60 -20 -97 -20c-59 0 -107 21 -145 64c-39 43 -58 95 -58 156c0 62 19 114 58 157c38 42 86 63 145 63c37 0 69 -6 96 -18c26 -13 54 -33 84 -60l92 106c-37 37 -77 65 -118 85
c-41 19 -92 29 -153 29c-106 0 -193 -35 -262 -105s-103 -156 -103 -257c0 -102 34 -188 103 -257c68 -70 153 -105 256 -105z" />
    <glyph glyph-name="CYRILLICCapitalLette" unicode="&#x422;" horiz-adv-x="648" 
d="M247 0h154v558h213v142h-580v-142h213v-558z" />
    <glyph glyph-name="CYRILLICCapitalLette" unicode="&#x423;" horiz-adv-x="734" 
d="M380 330l-190 370h-172l280 -524c-24 -37 -53 -56 -88 -56c-30 0 -58 8 -83 23l-60 -113c48 -27 98 -41 151 -41c50 0 93 13 130 40c36 27 69 70 99 130l269 541h-167z" />
    <glyph glyph-name="CYRILLICCapitalLette" unicode="&#x424;" horiz-adv-x="932" 
d="M543 526c57 0 102 -15 137 -46c34 -31 51 -73 51 -124c0 -52 -17 -93 -51 -124c-35 -31 -80 -47 -137 -47v341zM543 -28v76c106 0 190 29 253 88c63 58 94 132 94 222c0 89 -31 163 -94 220s-148 85 -253 85v64h-154v-64c-106 0 -190 -28 -253 -85s-94 -130 -94 -219
c0 -91 31 -165 94 -223c63 -59 147 -88 253 -88v-76h154zM389 185c-57 0 -102 16 -137 47s-52 72 -52 124c0 51 17 93 52 124s80 46 137 46v-341z" />
    <glyph glyph-name="CYRILLICCapitalLette" unicode="&#x425;" horiz-adv-x="732" 
d="M31 0h175l158 240l157 -240h180l-244 358l234 342h-175l-148 -227l-147 227h-180l234 -344z" />
    <glyph glyph-name="CYRILLICCapitalLette" unicode="&#x426;" horiz-adv-x="775" 
d="M603 -146h128l20 285h-83v561h-154v-561h-276v561h-154v-700h519v-146z" />
    <glyph glyph-name="CYRILLICCapitalLette" unicode="&#x427;" horiz-adv-x="728" 
d="M490 0h154v700h-154v-302c-39 -30 -90 -45 -153 -45c-75 0 -113 45 -113 136v211h-154v-256c0 -78 21 -137 63 -176s99 -59 172 -59c53 0 114 17 185 52v-261z" />
    <glyph glyph-name="CYRILLICCapitalLette" unicode="&#x428;" horiz-adv-x="1129" 
d="M1045 700h-154v-561h-250v561h-154v-561h-249v561h-154v-700h961v700z" />
    <glyph glyph-name="CYRILLICCapitalLette" unicode="&#x429;" horiz-adv-x="1152" 
d="M980 -146h128l20 285h-83v561h-154v-561h-250v561h-154v-561h-249v561h-154v-700h896v-146z" />
    <glyph glyph-name="CYRILLICCapitalLette" unicode="&#x42a;" horiz-adv-x="790" 
d="M487 330c77 0 116 -31 116 -93c0 -65 -38 -98 -115 -98h-137v191h136zM351 700h-321v-139h167v-561h293c82 0 147 21 195 64c47 42 71 99 71 171c0 69 -23 125 -68 166s-108 61 -188 61h-149v238z" />
    <glyph glyph-name="CYRILLICCapitalLette" unicode="&#x42b;" horiz-adv-x="959" 
d="M84 0h293c82 0 147 21 195 64c47 42 71 99 71 171c0 69 -23 125 -68 166s-108 61 -188 61h-149v238h-154v-700zM374 330c77 0 116 -31 116 -93c0 -65 -38 -98 -115 -98h-137v191h136zM721 0h154v700h-154v-700z" />
    <glyph glyph-name="CYRILLICCapitalLette" unicode="&#x42c;" horiz-adv-x="677" 
d="M84 0h293c82 0 147 21 195 64c47 42 71 99 71 171c0 69 -23 125 -68 166s-108 61 -188 61h-149v238h-154v-700zM374 330c77 0 116 -31 116 -93c0 -65 -38 -98 -115 -98h-137v191h136z" />
    <glyph glyph-name="CYRILLICCapitalLette" unicode="&#x42d;" horiz-adv-x="733" 
d="M228 289h287c-12 -48 -36 -87 -71 -117c-36 -31 -79 -46 -128 -46c-39 0 -73 7 -102 21c-29 13 -59 34 -90 62l-95 -103c37 -40 79 -70 125 -89s102 -29 167 -29c103 0 188 35 257 105c68 69 102 155 102 257c0 101 -34 187 -103 257s-156 105 -262 105
c-103 0 -192 -35 -267 -106l85 -106c55 49 116 74 183 74c47 0 89 -14 125 -43s60 -67 73 -114h-286v-128z" />
    <glyph glyph-name="CYRILLICCapitalLette" unicode="&#x42e;" horiz-adv-x="1065" 
d="M670 -12c99 0 181 35 246 105c64 69 96 155 96 257c0 103 -32 189 -96 258s-145 104 -244 104c-87 0 -161 -27 -222 -82c-62 -55 -100 -124 -115 -209h-97v279h-154v-700h154v283h96c14 -87 52 -157 113 -212s135 -83 223 -83zM672 128c-54 0 -98 21 -132 64
s-51 95 -51 158c0 64 17 117 51 159c33 41 77 62 130 62s97 -21 132 -63c34 -43 51 -95 51 -158c0 -64 -17 -117 -50 -159c-34 -42 -78 -63 -131 -63z" />
    <glyph glyph-name="CYRILLICCapitalLette" unicode="&#x42f;" horiz-adv-x="723" 
d="M638 700h-320c-82 0 -146 -20 -193 -61s-71 -98 -71 -170c0 -109 50 -182 150 -219l-171 -250h180l150 224h121v-224h154v700zM328 360c-37 0 -65 9 -86 27s-32 42 -32 72c0 33 11 59 32 76s51 26 89 26h153v-201h-156z" />
    <glyph glyph-name="CYRILLICSMALLLETTERA" unicode="&#x430;" horiz-adv-x="592" 
d="M220 -10c67 0 121 23 162 68v-58h147v311c0 75 -19 132 -58 171c-40 40 -100 60 -181 60c-73 0 -143 -14 -208 -43l38 -116c53 19 102 29 148 29c77 0 115 -33 115 -98v-9c-43 15 -86 22 -131 22c-66 0 -118 -14 -157 -43s-59 -71 -59 -128c0 -52 18 -93 53 -122
s78 -44 131 -44zM266 95c-25 0 -45 6 -60 18c-15 11 -23 27 -23 47c0 25 9 44 28 57c18 13 44 19 77 19c36 0 68 -7 97 -20v-27c0 -27 -11 -50 -33 -67c-22 -18 -51 -27 -86 -27z" />
    <glyph glyph-name="CYRILLICSMALLLETTERB" unicode="&#x431;" horiz-adv-x="654" 
d="M335 119c-37 0 -68 13 -93 40s-38 59 -38 98s12 73 36 100s55 40 93 40c37 0 69 -14 94 -41s37 -60 37 -99s-12 -72 -36 -98c-24 -27 -55 -40 -93 -40zM333 -12c81 0 148 26 201 79s80 117 80 192c0 73 -25 134 -75 183s-110 74 -179 74c-49 0 -91 -9 -125 -28
s-57 -40 -70 -62c5 67 49 109 130 126l294 58l-24 120l-287 -53c-39 -7 -72 -20 -100 -38c-29 -18 -51 -38 -66 -61c-16 -23 -28 -50 -37 -82s-15 -62 -18 -90c-3 -29 -4 -61 -4 -98c0 -103 24 -182 72 -237s117 -83 208 -83z" />
    <glyph glyph-name="CYRILLICSMALLLETTERV" unicode="&#x432;" horiz-adv-x="600" 
d="M68 536v-536h293c62 0 111 13 147 39c35 26 53 62 53 107c0 69 -35 114 -105 135c57 25 85 65 85 121c0 41 -16 74 -48 98c-33 24 -76 36 -131 36h-294zM218 321v103h109c21 0 36 -5 47 -14c10 -9 15 -21 15 -35c0 -16 -5 -29 -16 -39s-27 -15 -48 -15h-107zM218 119v106
h116c49 0 73 -17 73 -52c0 -36 -23 -54 -69 -54h-120z" />
    <glyph glyph-name="CYRILLICSMALLLETTERG" unicode="&#x433;" horiz-adv-x="474" 
d="M459 406v130h-391v-536h152v406h239z" />
    <glyph glyph-name="CYRILLICSMALLLETTERD" unicode="&#x434;" horiz-adv-x="645" 
d="M222 130c25 61 39 149 40 264v12h143v-276h-183zM484 0v-126h128l18 256h-73v406h-438v-46c0 -166 -17 -286 -52 -360h-58v-256h128l11 126h336z" />
    <glyph glyph-name="CYRILLICSMALLLETTERI" unicode="&#x435;" horiz-adv-x="613" 
d="M322 -12c92 0 165 33 219 100l-87 77c-39 -37 -83 -55 -130 -55c-35 0 -63 9 -86 27s-38 44 -45 78h373c1 19 2 32 2 40c0 82 -22 151 -67 207s-109 84 -194 84c-77 0 -140 -27 -190 -81s-75 -120 -75 -198c0 -83 26 -150 79 -201c53 -52 120 -78 201 -78zM191 310
c6 35 19 63 40 84c20 20 45 30 76 30s57 -10 77 -31c19 -21 31 -48 36 -83h-229z" />
    <glyph glyph-name="CYRILLICSMALLLETTERZ" unicode="&#x436;" horiz-adv-x="891" 
d="M522 0v139l64 75l136 -214h169l-202 314l197 222h-176l-188 -228v228h-153v-228l-188 228h-175l197 -222l-203 -314h170l135 214l64 -75v-139h153z" />
    <glyph glyph-name="CYRILLICSMALLLETTERZ" unicode="&#x437;" horiz-adv-x="523" 
d="M100 366c39 37 88 56 145 56c20 0 37 -5 50 -15s20 -22 20 -36c0 -15 -7 -28 -21 -39s-33 -16 -56 -16h-62v-95h63c28 0 50 -5 66 -15c15 -11 23 -24 23 -40s-7 -29 -22 -40s-34 -17 -57 -17c-60 0 -114 20 -161 61l-70 -97c64 -57 145 -85 244 -85c63 0 114 16 155 47
s61 70 61 117c0 61 -32 102 -95 125c55 25 82 65 82 121c0 41 -19 76 -58 104c-39 27 -88 41 -146 41c-90 0 -165 -28 -226 -84z" />
    <glyph glyph-name="CYRILLICSMALLLETTERI" unicode="&#x438;" horiz-adv-x="635" 
d="M567 536h-143l-209 -313v313h-147v-536h143l209 312v-312h147v536z" />
    <glyph glyph-name="CYRILLICSMALLLETTERS" unicode="&#x439;" horiz-adv-x="635" 
d="M567 536h-143l-209 -313v313h-147v-536h143l209 312v-312h147v536zM436 627c29 27 47 64 54 112l-89 16c-14 -45 -40 -67 -79 -67s-65 22 -79 67l-89 -16c7 -48 25 -85 55 -112c29 -27 67 -40 113 -40s76 7 91 20s23 20 23 20z" />
    <glyph glyph-name="CYRILLICSMALLLETTERK" unicode="&#x43a;" horiz-adv-x="611" 
d="M68 0h152v129l69 75l143 -204h180l-222 316l197 220h-175l-192 -220v220h-152v-536z" />
    <glyph glyph-name="CYRILLICSMALLLETTERE" unicode="&#x43b;" horiz-adv-x="631" 
d="M132 536c0 -93 -2 -168 -5 -224c-3 -57 -9 -98 -17 -125c-9 -27 -18 -45 -27 -52c-9 -8 -22 -12 -38 -12c-9 0 -20 1 -32 3l-10 -123c24 -6 50 -9 77 -9c29 0 53 3 72 9s37 17 54 34s30 40 39 71s17 70 22 119s8 108 8 179h136v-406h152v536h-431z" />
    <glyph glyph-name="CYRILLICSMALLLETTERE" unicode="&#x43c;" horiz-adv-x="736" 
d="M68 0h150v319l147 -217l149 220v-322h154v536h-154l-147 -225l-145 225h-154v-536z" />
    <glyph glyph-name="CYRILLICSMALLLETTERE" unicode="&#x43d;" horiz-adv-x="627" 
d="M559 536h-152v-206h-187v206h-152v-536h152v205h187v-205h152v536z" />
    <glyph glyph-name="CYRILLICSMALLLETTERO" unicode="&#x43e;" horiz-adv-x="664" 
d="M539 69c55 54 83 120 83 198c0 79 -27 145 -82 199c-55 53 -124 80 -207 80s-152 -27 -207 -81c-56 -54 -84 -120 -84 -198c0 -79 28 -145 83 -198c55 -54 123 -81 206 -81s138 14 166 41s42 40 42 40zM333 119c-41 0 -75 15 -101 44c-27 29 -40 63 -40 104
c0 42 13 77 38 106c25 28 59 42 101 42c41 0 75 -14 102 -43c26 -29 39 -64 39 -105c0 -42 -13 -77 -38 -105c-25 -29 -59 -43 -101 -43z" />
    <glyph glyph-name="CYRILLICSMALLLETTERP" unicode="&#x43f;" horiz-adv-x="623" 
d="M555 536h-487v-536h152v406h183v-406h152v536z" />
    <glyph glyph-name="CYRILLICSMALLLETTERE" unicode="&#x440;" horiz-adv-x="675" 
d="M68 -160h152v230c45 -53 100 -80 167 -80s125 25 173 75c47 49 71 117 71 202c0 86 -24 154 -72 204s-105 75 -172 75c-69 0 -124 -29 -167 -87v77h-152v-696zM256 161c-25 27 -38 63 -38 106c0 45 13 81 38 109c25 27 55 41 92 41s68 -14 93 -41c25 -28 38 -64 38 -107
c0 -45 -13 -81 -38 -108c-25 -28 -56 -42 -93 -42s-61 7 -74 21z" />
    <glyph glyph-name="CYRILLICSMALLLETTERE" unicode="&#x441;" horiz-adv-x="571" 
d="M321 -12c50 0 92 8 125 25s65 41 94 73l-89 90c-40 -38 -81 -57 -123 -57c-41 0 -73 14 -98 43c-25 28 -38 63 -38 105c0 41 12 76 37 105s56 43 93 43c46 0 88 -18 125 -53l89 90c-56 63 -127 94 -213 94c-81 0 -148 -27 -201 -81c-53 -55 -80 -121 -80 -198
c0 -78 27 -144 80 -198s119 -81 199 -81z" />
    <glyph glyph-name="CYRILLICSMALLLETTERT" unicode="&#x442;" horiz-adv-x="502" 
d="M487 536h-472v-130h159v-406h154v406h159v130z" />
    <glyph glyph-name="CYRILLICSMALLLETTERU" unicode="&#x443;" horiz-adv-x="600" 
d="M196 -163c45 0 80 11 106 34c26 22 49 61 70 116l206 549h-158l-117 -365l-122 365h-161l210 -538c-11 -23 -29 -35 -53 -35c-20 0 -42 7 -65 21l-51 -110c42 -25 87 -37 135 -37z" />
    <glyph glyph-name="CYRILLICSMALLLETTERE" unicode="&#x444;" horiz-adv-x="903" 
d="M593 415c36 0 64 -13 84 -40s30 -63 30 -108c0 -46 -10 -82 -29 -108c-20 -26 -48 -39 -85 -39c-22 0 -44 8 -65 24v245c23 17 45 26 65 26zM528 -160v196c11 -12 27 -22 48 -30c21 -9 43 -13 66 -13c65 0 117 24 157 73s60 116 60 201s-20 153 -60 202s-93 73 -158 73
c-23 0 -44 -5 -65 -15s-37 -22 -48 -35v208h-153v-208c-11 13 -27 25 -48 35s-42 15 -65 15c-65 0 -118 -24 -158 -73s-60 -117 -60 -202s20 -152 60 -201s92 -73 157 -73c23 0 45 4 66 13c21 8 37 18 48 30v-196h153zM310 415c20 0 42 -9 65 -26v-245
c-21 -16 -43 -24 -65 -24c-37 0 -65 13 -84 39c-20 26 -30 62 -30 108c0 45 10 81 30 108s48 40 84 40z" />
    <glyph glyph-name="CYRILLICSMALLLETTERH" unicode="&#x445;" horiz-adv-x="584" 
d="M23 0h159l108 167l108 -167h163l-189 275l181 261h-159l-101 -156l-100 156h-163l181 -264z" />
    <glyph glyph-name="CYRILLICSMALLLETTERT" unicode="&#x446;" horiz-adv-x="643" 
d="M482 -126h128l18 256h-73v406h-152v-406h-183v406h-152v-536h414v-126z" />
    <glyph glyph-name="CYRILLICSMALLLETTERC" unicode="&#x447;" horiz-adv-x="606" 
d="M207 536h-154v-211c0 -55 17 -97 52 -127c35 -31 80 -46 135 -46c49 0 97 12 145 35v-187h153v536h-153v-230c-35 -17 -69 -26 -104 -26c-49 0 -74 29 -74 88v168z" />
    <glyph glyph-name="CYRILLICSMALLLETTERS" unicode="&#x448;" horiz-adv-x="934" 
d="M866 536h-153v-406h-170v406h-152v-406h-171v406h-152v-536h798v536z" />
    <glyph glyph-name="CYRILLICSMALLLETTERS" unicode="&#x449;" horiz-adv-x="954" 
d="M793 0v-126h128l18 256h-73v406h-153v-406h-170v406h-152v-406h-171v406h-152v-536h725z" />
    <glyph glyph-name="CYRILLICSMALLLETTERH" unicode="&#x44a;" horiz-adv-x="649" 
d="M401 244c25 0 44 -5 57 -16s19 -25 19 -44c0 -43 -25 -64 -75 -64h-96v124h95zM306 536h-291v-128h139v-408h270c65 0 115 16 152 49c36 32 54 76 54 133c0 58 -19 102 -58 132s-91 45 -156 45h-110v177z" />
    <glyph glyph-name="CYRILLICSMALLLETTERY" unicode="&#x44b;" horiz-adv-x="835" 
d="M68 0h270c65 0 115 16 152 49c36 32 54 76 54 133c0 58 -19 102 -58 132s-91 45 -156 45h-110v177h-152v-536zM315 244c25 0 44 -5 57 -16s19 -25 19 -44c0 -43 -25 -64 -75 -64h-96v124h95zM615 0h152v536h-152v-536z" />
    <glyph glyph-name="CYRILLICSMALLLETTERS" unicode="&#x44c;" horiz-adv-x="563" 
d="M68 0h270c65 0 115 16 152 49c36 32 54 76 54 133c0 58 -19 102 -58 132s-91 45 -156 45h-110v177h-152v-536zM315 244c25 0 44 -5 57 -16s19 -25 19 -44c0 -43 -25 -64 -75 -64h-96v124h95z" />
    <glyph glyph-name="CYRILLICSMALLLETTERE" unicode="&#x44d;" horiz-adv-x="575" 
d="M193 217h187c-9 -31 -26 -55 -49 -74s-51 -28 -84 -28c-46 0 -89 19 -130 58l-86 -87c59 -65 134 -98 223 -98c80 0 147 27 200 81s79 120 79 198c0 77 -27 143 -80 198c-53 54 -120 81 -201 81c-82 0 -151 -28 -208 -85l79 -93c36 34 79 51 130 51c30 0 56 -9 79 -27
c22 -19 38 -43 47 -73h-186v-102z" />
    <glyph glyph-name="CYRILLICSMALLLETTERY" unicode="&#x44e;" horiz-adv-x="869" 
d="M556 -12c79 0 144 27 195 81c51 53 76 119 76 198s-25 146 -75 199s-115 80 -194 80c-68 0 -126 -20 -173 -60c-48 -41 -79 -93 -92 -156h-73v206h-152v-536h152v205h73c12 -64 42 -116 90 -156c47 -41 105 -61 173 -61zM558 119c-38 0 -68 14 -89 43
c-21 28 -32 63 -32 105c0 43 10 79 30 107c20 27 50 41 89 41c38 0 68 -14 89 -42c21 -29 32 -64 32 -106c0 -43 -10 -79 -30 -106c-20 -28 -50 -42 -89 -42z" />
    <glyph glyph-name="CYRILLICSMALLLETTERY" unicode="&#x44f;" horiz-adv-x="611" 
d="M543 536h-281c-69 0 -122 -16 -160 -48c-38 -33 -57 -76 -57 -131c0 -78 37 -131 112 -160l-137 -197h176l113 172h82v-172h152v536zM288 282c-28 0 -50 6 -65 18c-16 11 -24 28 -24 49c0 22 8 39 23 51c15 11 37 17 65 17h104v-135h-103z" />
    <glyph glyph-name="CYRILLICSMALLLETTERI" unicode="&#x451;" horiz-adv-x="613" 
d="M322 -12c92 0 165 33 219 100l-87 77c-39 -37 -83 -55 -130 -55c-35 0 -63 9 -86 27s-38 44 -45 78h373c1 19 2 32 2 40c0 82 -22 151 -67 207s-109 84 -194 84c-77 0 -140 -27 -190 -81s-75 -120 -75 -198c0 -83 26 -150 79 -201c53 -52 120 -78 201 -78zM191 310
c6 35 19 63 40 84c20 20 45 30 76 30s57 -10 77 -31c19 -21 31 -48 36 -83h-229zM340 595h146v135h-146v-135zM126 595h146v135h-146v-135z" />
    <glyph glyph-name="CYRILLICSMALLLETTERD" unicode="&#x452;" horiz-adv-x="623" 
d="M407 238c0 -35 -9 -63 -27 -83s-42 -30 -72 -30c-10 0 -17 1 -22 2l-25 -116c2 -1 7 -2 15 -5c7 -3 14 -5 21 -6c6 -2 16 -4 29 -5c13 -2 27 -3 42 -3c57 0 103 18 138 54s53 85 53 147v114c0 62 -16 111 -48 146s-77 53 -134 53c-60 0 -112 -29 -157 -86v131h156v106
h-156v73h-152v-73h-66v-106h66v-551h152v259c0 35 9 62 26 81s40 28 69 28s52 -9 68 -28s24 -46 24 -81v-21z" />
    <glyph glyph-name="CYRILLICSMALLLETTERG" unicode="&#x453;" horiz-adv-x="474" 
d="M459 406v130h-391v-536h152v406h239zM165 595h116l128 120l-131 57z" />
    <glyph glyph-name="CYRILLICSMALLLETTERU" unicode="&#x454;" horiz-adv-x="575" 
d="M382 319h-186c9 30 25 54 48 73c22 18 48 27 78 27c51 0 94 -17 130 -51l79 93c-57 57 -126 85 -208 85c-81 0 -148 -27 -201 -81c-53 -55 -80 -121 -80 -198c0 -78 27 -144 80 -198s119 -81 199 -81c89 0 164 33 223 98l-86 87c-41 -39 -84 -58 -130 -58
c-33 0 -61 9 -84 28s-40 43 -49 74h187v102z" />
    <glyph glyph-name="CYRILLICSMALLLETTERD" unicode="&#x455;" horiz-adv-x="502" 
d="M256 -10c61 0 111 15 149 44c37 29 56 72 56 129c0 19 -3 37 -10 53s-15 29 -24 40c-10 10 -23 20 -39 29s-30 17 -43 22s-28 11 -46 17c-4 1 -10 3 -17 6c-61 21 -92 40 -92 58c0 26 19 39 56 39c40 0 88 -17 145 -50l58 105c-61 41 -128 62 -200 62
c-56 0 -103 -15 -140 -45c-37 -31 -56 -72 -56 -125c0 -25 5 -47 14 -66s22 -35 39 -47c17 -13 34 -22 50 -29c15 -7 34 -14 57 -21c5 -1 11 -3 19 -5c8 -3 14 -5 19 -6s10 -3 17 -5c7 -3 12 -5 16 -6c3 -2 8 -4 13 -6c5 -3 9 -5 12 -7l8 -8s5 -6 6 -9s1 -7 1 -10
c0 -28 -21 -42 -64 -42c-54 0 -110 21 -169 64l-65 -100c69 -54 145 -81 230 -81z" />
    <glyph glyph-name="CYRILLICSMALLLETTERB" unicode="&#x456;" horiz-adv-x="302" 
d="M71 595h160v135h-160v-135zM75 0h152v536h-152v-536z" />
    <glyph glyph-name="CYRILLICSMALLLETTERY" unicode="&#x457;" horiz-adv-x="302" 
d="M185 595h146v135h-146v-135zM-29 595h146v135h-146v-135zM75 0h152v536h-152v-536z" />
    <glyph glyph-name="CYRILLICSMALLLETTERJ" unicode="&#x458;" horiz-adv-x="302" 
d="M71 595h160v135h-160v-135zM55 -163c115 0 172 57 172 172v527h-152v-515c0 -41 -18 -62 -54 -62c-9 0 -20 1 -32 3v-119c21 -4 43 -6 66 -6z" />
    <glyph glyph-name="CYRILLICSMALLLETTERL" unicode="&#x459;" horiz-adv-x="906" 
d="M411 0h270c65 0 115 16 152 49c36 32 54 76 54 133c0 58 -19 102 -58 132s-91 45 -156 45h-110v177h-431c0 -93 -2 -168 -5 -224c-3 -57 -9 -98 -17 -125c-9 -27 -18 -45 -27 -52c-9 -8 -22 -12 -38 -12c-9 0 -20 1 -32 3l-10 -123c21 -6 46 -9 77 -9c29 0 53 3 72 9
s37 17 54 34s30 40 39 71s17 70 22 119s8 108 8 179h136v-406zM658 244c25 0 44 -5 57 -16s19 -25 19 -44c0 -43 -25 -64 -75 -64h-96v124h95z" />
    <glyph glyph-name="CYRILLICSMALLLETTERN" unicode="&#x45a;" horiz-adv-x="902" 
d="M407 0h270c65 0 115 16 152 47c36 31 54 74 54 130c0 58 -19 102 -58 131s-91 43 -156 43h-110v185h-152v-185h-187v185h-152v-536h152v236h187v-236zM654 236c51 0 76 -19 76 -57c0 -39 -25 -59 -75 -59h-96v116h95z" />
    <glyph glyph-name="CYRILLICSMALLLETTERT" unicode="&#x45b;" horiz-adv-x="623" 
d="M2 657v-106h66v-551h152v259c0 35 9 62 26 81s40 28 69 28s52 -9 68 -28s24 -46 24 -81v-259h152v307c0 62 -16 111 -48 146s-77 53 -134 53c-60 0 -112 -29 -157 -86v131h156v106h-156v73h-152v-73h-66z" />
    <glyph glyph-name="CYRILLICSMALLLETTERK" unicode="&#x45c;" horiz-adv-x="611" 
d="M68 0h152v129l69 75l143 -204h180l-222 316l197 220h-175l-192 -220v220h-152v-536zM233 595h116l128 120l-131 57z" />
    <glyph glyph-name="CYRILLICSMALLLETTERS" unicode="&#x45e;" horiz-adv-x="600" 
d="M196 -163c45 0 80 11 106 34c26 22 49 61 70 116l206 549h-158l-117 -365l-122 365h-161l210 -538c-11 -23 -29 -35 -53 -35c-20 0 -42 7 -65 21l-51 -110c42 -25 87 -37 135 -37zM416 627c29 27 47 64 54 112l-89 16c-14 -45 -40 -67 -79 -67s-65 22 -79 67l-89 -16
c7 -48 25 -85 55 -112c29 -27 67 -40 113 -40s76 7 91 20s23 20 23 20z" />
    <glyph glyph-name="CYRILLICSMALLLETTERD" unicode="&#x45f;" horiz-adv-x="623" 
d="M242 -126h143v126h170v536h-152v-406h-183v406h-152v-536h174v-126z" />
    <glyph glyph-name="CYRILLICCapitalLette" unicode="&#x490;" horiz-adv-x="598" 
d="M573 561l-20 285h-128v-146h-341v-700h154v561h335z" />
    <glyph glyph-name="CYRILLICSMALLLETTERG" unicode="&#x491;" horiz-adv-x="474" 
d="M459 406l-18 256h-128v-126h-245v-536h152v406h239z" />
    <glyph glyph-name="endash" unicode="&#x2013;" horiz-adv-x="528" 
d="M50 239h428v142h-428v-142z" />
    <glyph glyph-name="emdash" unicode="&#x2014;" horiz-adv-x="898" 
d="M50 239h798v142h-798v-142z" />
    <glyph glyph-name="quoteleft" unicode="&#x2018;" horiz-adv-x="286" 
d="M57 383h162v160h-62c-5 59 27 92 98 99l-13 63c-61 -1 -107 -17 -138 -46c-31 -30 -47 -77 -47 -141v-135z" />
    <glyph glyph-name="quoteright" unicode="&#x2019;" horiz-adv-x="286" 
d="M44 378c61 1 108 17 139 47c31 29 46 76 46 140v135h-162v-160h62c5 -59 -27 -92 -98 -99z" />
    <glyph glyph-name="quotesinglbase" unicode="&#x201a;" horiz-adv-x="286" 
d="M39 -162c61 1 108 17 139 47c31 29 46 76 46 140v135h-162v-160h62c5 -59 -27 -92 -98 -99z" />
    <glyph glyph-name="quotedblleft" unicode="&#x201c;" horiz-adv-x="540" 
d="M311 383h162v160h-62c-5 59 27 92 98 99l-13 63c-61 -1 -107 -17 -138 -46c-31 -30 -47 -77 -47 -141v-135zM57 383h162v160h-62c-5 59 27 92 98 99l-13 63c-61 -1 -107 -17 -138 -46c-31 -30 -47 -77 -47 -141v-135z" />
    <glyph glyph-name="quotedblright" unicode="&#x201d;" horiz-adv-x="540" 
d="M298 378c61 1 108 17 139 47c31 29 46 76 46 140v135h-162v-160h62c5 -59 -27 -92 -98 -99zM44 378c61 1 108 17 139 47c31 29 46 76 46 140v135h-162v-160h62c5 -59 -27 -92 -98 -99z" />
    <glyph glyph-name="quotedblbase" unicode="&#x201e;" horiz-adv-x="540" 
d="M293 -162c61 1 108 17 139 47c31 29 46 76 46 140v135h-162v-160h62c5 -59 -27 -92 -98 -99zM39 -162c61 1 108 17 139 47c31 29 46 76 46 140v135h-162v-160h62c5 -59 -27 -92 -98 -99z" />
    <glyph glyph-name="dagger" unicode="&#x2020;" horiz-adv-x="410" 
d="M163 238h84l-10 270l120 -10v83l-119 -10l13 129h-92l13 -129l-119 10v-83l120 10z" />
    <glyph glyph-name="daggerdbl" unicode="&#x2021;" horiz-adv-x="430" 
d="M169 0h92l-13 129l119 -10v83l-119 -10l9 158l-9 158l119 -10v83l-119 -10l13 129h-92l13 -129l-119 10v-83l119 10l-9 -158l9 -158l-119 10v-83l119 10z" />
    <glyph glyph-name="bullet" unicode="&#x2022;" 
d="M356 247c29 29 43 63 43 104v2c0 41 -14 76 -43 105s-65 43 -106 43s-76 -14 -105 -43s-44 -64 -44 -105v-2c0 -41 15 -75 44 -104s64 -44 105 -44s69 7 84 22z" />
    <glyph glyph-name="ellipsis" unicode="&#x2026;" horiz-adv-x="840" 
d="M620 0h158v156h-158v-156zM341 0h158v156h-158v-156zM62 0h158v156h-158v-156z" />
    <glyph glyph-name="perthousand" unicode="&#x2030;" horiz-adv-x="1240" 
d="M214 350c50 0 91 17 123 52s48 77 48 127v2c0 50 -16 92 -47 126c-32 34 -73 51 -122 51c-50 0 -91 -17 -123 -51c-32 -35 -48 -77 -48 -128v-2c0 -50 16 -92 48 -126c31 -34 72 -51 121 -51zM115 0h119l511 700h-119zM1024 -8c50 0 91 17 123 52s48 77 48 127v2
c0 50 -16 92 -47 126c-32 34 -73 51 -122 51c-50 0 -91 -17 -123 -51c-32 -35 -48 -77 -48 -128v-2c0 -50 16 -92 48 -126c31 -34 72 -51 121 -51zM644 -8c50 0 91 17 123 52s48 77 48 127v2c0 50 -16 92 -47 126c-32 34 -73 51 -122 51c-50 0 -91 -17 -123 -51
c-32 -35 -48 -77 -48 -128v-2c0 -50 16 -92 48 -126c31 -34 72 -51 121 -51zM216 441c-19 0 -35 9 -47 26c-13 17 -19 38 -19 62v2c0 24 6 44 17 61s27 25 47 25c19 0 35 -9 48 -26c12 -17 18 -38 18 -62v-2c0 -24 -6 -44 -17 -61s-27 -25 -47 -25zM1026 83
c-19 0 -35 9 -47 26c-13 17 -19 38 -19 62v2c0 24 6 44 17 61s27 25 47 25c19 0 35 -9 48 -26c12 -17 18 -38 18 -62v-2c0 -24 -6 -44 -17 -61s-27 -25 -47 -25zM646 83c-19 0 -35 9 -47 26c-13 17 -19 38 -19 62v2c0 24 6 44 17 61s27 25 47 25c19 0 35 -9 48 -26
c12 -17 18 -38 18 -62v-2c0 -24 -6 -44 -17 -61s-27 -25 -47 -25z" />
    <glyph glyph-name="guilsinglleft" unicode="&#x2039;" horiz-adv-x="373" 
d="M209 40l116 58l-130 171l130 171l-116 56l-168 -224v-8z" />
    <glyph glyph-name="guilsinglright" unicode="&#x203a;" horiz-adv-x="373" 
d="M164 40l168 224v8l-168 224l-116 -58l130 -171l-130 -171z" />
    <glyph glyph-name="fraction" unicode="&#x2044;" horiz-adv-x="480" 
d="M-71 -98h134l466 856h-134z" />
    <glyph glyph-name="Euro" unicode="&#x20ac;" horiz-adv-x="720" 
d="M437 -12c54 0 100 12 139 36c39 23 74 57 106 102l-110 81c-24 -29 -46 -50 -65 -63s-43 -19 -70 -19c-63 0 -108 31 -135 92h186v101h-208c-1 7 -1 17 -1 32c0 17 0 29 1 36h208v101h-185c27 59 70 88 128 88c28 0 52 -6 73 -19c20 -13 40 -33 60 -60l116 88
c-29 41 -63 73 -101 95c-39 22 -87 33 -145 33c-71 0 -132 -20 -183 -61s-87 -96 -108 -164h-94v-101h75c-1 -8 -1 -20 -1 -36c0 -15 0 -25 1 -32h-75v-101h92c20 -71 56 -126 107 -167s114 -62 189 -62z" />
    <glyph glyph-name="NUMEROSIGN" unicode="&#x2116;" horiz-adv-x="1061" 
d="M62 0h159v436l284 -436h133v700h-159v-424l-273 424h-144v-700zM721 124h268v91h-268v-91zM965 310c29 29 44 66 44 109s-14 80 -43 109s-66 44 -110 44s-81 -15 -110 -44c-30 -30 -45 -67 -45 -110s15 -80 44 -109s65 -44 109 -44s73 7 88 22zM856 345
c-19 0 -35 7 -47 22c-12 14 -18 31 -18 52s6 38 18 52c11 14 26 21 45 21s35 -7 47 -21c12 -15 18 -32 18 -53s-6 -38 -17 -52c-12 -14 -27 -21 -46 -21z" />
    <glyph glyph-name="SOUNDRECORDINGCOPYRI" unicode="&#x2117;" horiz-adv-x="830" 
d="M671 95c71 71 106 156 106 255v2c0 99 -35 184 -105 255c-70 70 -155 105 -256 105s-186 -35 -257 -106s-106 -157 -106 -256v-2c0 -99 35 -184 105 -254c70 -71 155 -106 256 -106s169 18 204 53c35 36 53 54 53 54zM187 121c-61 62 -92 138 -92 227v2
c0 89 31 165 93 228c61 63 137 94 228 94s167 -31 228 -93s91 -138 91 -227v-2c0 -89 -31 -165 -92 -228c-62 -63 -138 -94 -229 -94s-151 16 -182 47c-30 31 -45 46 -45 46zM282 164h86v116h64c45 0 83 12 112 35s44 56 44 99v2c0 40 -13 72 -40 97c-27 24 -63 36 -108 36
h-158v-385zM368 355v118h64c21 0 38 -5 51 -15c12 -11 18 -25 18 -43v-2c0 -17 -6 -30 -18 -41s-28 -17 -49 -17h-66z" />
    <glyph glyph-name="trademark" unicode="&#x2122;" horiz-adv-x="690" 
d="M345 392h66v208l85 -135h6l85 135v-208h66v308h-72l-81 -130l-81 130h-74v-308zM118 392h70v246h92v62h-254v-62h92v-246z" />
    <glyph glyph-name="partialdiff" unicode="&#x2202;" 
d="M0 0h500v700h-500v-700zM81 49l169 255l170 -255h-339zM49 96v508l171 -254zM450 96l-171 254l171 254v-508zM250 395l-169 255h339z" />
    <glyph glyph-name="Delta" unicode="&#x2206;" horiz-adv-x="570" 
d="M740 0l-290 700h-143l-290 -700h723zM380 498l141 -362h-281z" />
    <glyph glyph-name="product" unicode="&#x220f;" 
d="M0 0h500v700h-500v-700zM81 49l169 255l170 -255h-339zM49 96v508l171 -254zM450 96l-171 254l171 254v-508zM250 395l-169 255h339z" />
    <glyph glyph-name="summation" unicode="&#x2211;" 
d="M0 0h500v700h-500v-700zM81 49l169 255l170 -255h-339zM49 96v508l171 -254zM450 96l-171 254l171 254v-508zM250 395l-169 255h339z" />
    <glyph glyph-name="minus" unicode="&#x2212;" horiz-adv-x="640" 
d="M557 282v140h-474v-140h474z" />
    <glyph glyph-name="radical" unicode="&#x221a;" horiz-adv-x="605" 
d="M82 231l185 -359l389 926h-112l-288 -687l-113 218h-168v-98h107z" />
    <glyph glyph-name="infinity" unicode="&#x221e;" horiz-adv-x="864" 
d="M240 146c39 0 73 10 102 30s59 49 90 87c30 -37 60 -65 91 -86s65 -31 104 -31c59 0 106 20 141 59c34 39 51 89 51 149c0 59 -17 108 -51 146c-35 38 -81 57 -140 57c-42 0 -77 -10 -106 -31s-59 -133 -90 -92s-60 71 -89 92s-65 31 -107 31c-59 0 -105 -19 -139 -57
c-35 -38 -52 -87 -52 -146c0 -61 18 -110 53 -149s82 -59 142 -59zM239 271c-23 0 -42 8 -55 23c-14 15 -21 35 -21 58s7 42 20 58c13 15 31 23 54 23c40 0 81 -27 123 -81c-42 -54 -82 -81 -121 -81zM627 271c-39 0 -80 27 -123 81c41 54 81 81 120 81c23 0 42 -8 56 -23
s21 -35 21 -58s-6 -43 -19 -58s-32 -23 -55 -23z" />
    <glyph glyph-name="integral" unicode="&#x222b;" 
d="M0 0h500v700h-500v-700zM81 49l169 255l170 -255h-339zM49 96v508l171 -254zM450 96l-171 254l171 254v-508zM250 395l-169 255h339z" />
    <glyph glyph-name="approxequal" unicode="&#x2248;" horiz-adv-x="640" 
d="M150 385c13 31 38 47 75 47c9 0 40 -6 92 -19c51 -13 87 -20 107 -20c74 0 123 51 146 154l-77 21c-13 -31 -38 -47 -75 -47c-9 0 -40 7 -91 20s-87 19 -107 19c-74 0 -123 -51 -146 -154zM150 131c13 31 38 47 75 47c9 0 40 -6 92 -19c51 -13 87 -20 107 -20
c74 0 123 51 146 154l-77 21c-13 -31 -38 -47 -75 -47c-9 0 -40 7 -91 20s-87 19 -107 19c-74 0 -123 -51 -146 -154z" />
    <glyph glyph-name="notequal" unicode="&#x2260;" horiz-adv-x="640" 
d="M79 413h231l-80 -122h-151v-136h62l-70 -107h95l71 107h323v136h-235l80 122h155v136h-66l68 103h-95l-68 -103h-320v-136z" />
    <glyph glyph-name="lessequal" unicode="&#x2264;" horiz-adv-x="640" 
d="M563 182v145l-339 92l339 91v145l-483 -166v-141zM79 17h485v129h-485v-129z" />
    <glyph glyph-name="greaterequal" unicode="&#x2265;" horiz-adv-x="640" 
d="M563 348v141l-483 166v-145l339 -91l-339 -92v-145zM564 146h-485v-129h485v129z" />
    <glyph glyph-name="lozenge" unicode="&#x25ca;" horiz-adv-x="640" 
d="M573 356l-190 391h-127l-189 -391l188 -391h128zM429 356l-109 -250l-109 250l109 249z" />
    <glyph glyph-name="[namenotfound]" unicode="&#xf6d1;" 
d="M362 633c29 27 47 64 54 112l-89 16c-14 -45 -40 -67 -79 -67s-65 22 -79 67l-89 -16c7 -48 25 -85 55 -112c29 -27 67 -40 113 -40s76 7 91 20s23 20 23 20z" />
    <glyph glyph-name="[namenotfound]" unicode="&#xf6d4;" 
d="M362 627c29 27 47 64 54 112l-89 16c-14 -45 -40 -67 -79 -67s-65 22 -79 67l-89 -16c7 -48 25 -85 55 -112c29 -27 67 -40 113 -40s76 7 91 20s23 20 23 20z" />
    <glyph glyph-name="SMALLLIGATUREFF" unicode="&#xfb00;" horiz-adv-x="764" 
d="M476 0h152v406h121v124h-123v21c0 39 18 58 55 58c22 0 45 -4 69 -13v126c-31 10 -67 15 -108 15c-54 0 -95 -14 -123 -42c-29 -29 -43 -72 -43 -130v-34h-63v-125h63v-406zM94 0h152v406h121v124h-123v21c0 39 18 58 55 58c22 0 45 -4 69 -13v126c-31 10 -67 15 -108 15
c-54 0 -95 -14 -123 -42c-29 -29 -43 -72 -43 -130v-34h-63v-125h63v-406z" />
    <glyph glyph-name="SMALLLIGATUREFI" unicode="&#xfb01;" horiz-adv-x="684" 
d="M453 595h160v135h-160v-135zM94 0h152v406h121v124h-123v21c0 39 18 58 55 58c22 0 45 -4 69 -13v126c-31 10 -67 15 -108 15c-54 0 -95 -14 -123 -42c-29 -29 -43 -72 -43 -130v-34h-63v-125h63v-406zM457 0h152v536h-152v-536z" />
    <glyph glyph-name="SMALLLIGATUREFL" unicode="&#xfb02;" horiz-adv-x="684" 
d="M94 0h152v406h121v124h-123v21c0 39 18 58 55 58c22 0 45 -4 69 -13v126c-31 10 -67 15 -108 15c-54 0 -95 -14 -123 -42c-29 -29 -43 -72 -43 -130v-34h-63v-125h63v-406zM457 0h152v730h-152v-730z" />
    <glyph glyph-name="SMALLLIGATUREFFI" unicode="&#xfb03;" horiz-adv-x="1066" 
d="M835 595h160v135h-160v-135zM476 0h152v406h121v124h-123v21c0 39 18 58 55 58c22 0 45 -4 69 -13v126c-31 10 -67 15 -108 15c-54 0 -95 -14 -123 -42c-29 -29 -43 -72 -43 -130v-34h-63v-125h63v-406zM94 0h152v406h121v124h-123v21c0 39 18 58 55 58
c22 0 45 -4 69 -13v126c-31 10 -67 15 -108 15c-54 0 -95 -14 -123 -42c-29 -29 -43 -72 -43 -130v-34h-63v-125h63v-406zM839 0h152v536h-152v-536z" />
    <glyph glyph-name="SMALLLIGATUREFFL" unicode="&#xfb04;" horiz-adv-x="1066" 
d="M476 0h152v406h121v124h-123v21c0 39 18 58 55 58c22 0 45 -4 69 -13v126c-31 10 -67 15 -108 15c-54 0 -95 -14 -123 -42c-29 -29 -43 -72 -43 -130v-34h-63v-125h63v-406zM94 0h152v406h121v124h-123v21c0 39 18 58 55 58c22 0 45 -4 69 -13v126c-31 10 -67 15 -108 15
c-54 0 -95 -14 -123 -42c-29 -29 -43 -72 -43 -130v-34h-63v-125h63v-406zM839 0h152v730h-152v-730z" />
  </font>
</defs>
</svg>
